Евгений Весник. Всё не как у людей (Константин Владимиров) [2012, Документальный, биография, искусство, SATRip]


Статистика раздачи [Обновить пиров]
Размер:  457 MB   |    Зарегистрирован:  8 месяцев 22 дня   |    Скачан:  0 раз

Полного источника не было: Никогда

 
   
 
 
 

[Цитировать]

Евгений Весник. Всё не как у людей
Дата/Год выпуска: 2012
Страна: Россия, ТК "Вектор-Русь"
Жанр: Документальный, биография, искусство
Продолжительность: 00:39:01
Перевод: Не требуется
Русские субтитры: нет
Режиссер: Константин Владимиров
Описание: Дороги, которые мы выбираем - будто зеркало души нашей, характера, принципов... Народный артист СССР Евгений Весник, чьё даже короткое появление на экране вызывало у зрителей улыбку, включил такой афоризм Фёдора Достоевского в свою последнюю книгу "Триптих с ремарками": "Тот, кто не понимает своего предназначения, всего чаще лишён чувства собственного достоинства..." Ну, а формулу, которую он выбрал для своей жизни, можно описать в двух словах: "Против течения...". Участники: Евгений Петросян, Юрий Соломин, Ольга Аросева, Геннадий Хазанов, Вячеслав Войнаровский, Нонна Весник (вдова актера)
качество: SATRip
формат: AVI
Видео: 640x480 (1.33:1), 25 fps, XviD build 50 ~1499 kbps avg, 0.20 bit/pixel
Аудио: 48 kHz, MPEG Layer 3, 2 ch, ~128.00 kbps avg

MediaInfo

Complete name                            : C:\Users\Home\Desktop\Razdacha\E.Vesnik.Vse.ne.kak.u.ljudej.2012.SATRip.avi
Format : AVI
Format/Info : Audio Video Interleave
File size : 457 MiB
Duration : 39mn 1s
Overall bit rate : 1 637 Kbps
Writing application : VirtualDubMod 1.5.10.3 | www.virtualdub-fr.org || (build 2550/release)
Writing library : VirtualDubMod build 2550/release
Video
ID : 0
Format : MPEG-4 Visual
Format profile : Advanced Simple@L5
Format settings, BVOP : 2
Format settings, QPel : No
Format settings, GMC : No warppoints
Format settings, Matrix : Default (MPEG)
Codec ID : XVID
Codec ID/Hint : XviD
Duration : 39mn 1s
Bit rate : 1 500 Kbps
Width : 640 pixels
Height : 480 pixels
Display aspect ratio : 4:3
Frame rate : 25.000 fps
Color space : YUV
Chroma subsampling : 4:2:0
Bit depth : 8 bits
Scan type : Progressive
Compression mode : Lossy
Bits/(Pixel*Frame) : 0.195
Stream size : 419 MiB (92%)
Writing library : XviD 1.2.1 (UTC 2008-12-04)
Audio
ID : 1
Format : MPEG Audio
Format version : Version 1
Format profile : Layer 3
Codec ID : 55
Codec ID/Hint : MP3
Duration : 39mn 1s
Bit rate mode : Constant
Bit rate : 128 Kbps
Channel count : 2 channels
Sampling rate : 48.0 KHz
Compression mode : Lossy
Stream size : 35.7 MiB (8%)
Alignment : Aligned on interleaves
Interleave, duration : 40 ms (1.00 video frame)
Interleave, preload duration : 504 ms
Writing library : LAME3.99r
Encoding settings : -m s -V 4 -q 2 -lowpass 17 -b 128

Скриншоты

[teatrix.ru].t20208.torrent 
Торрент: Зарегистрирован [ 2016-03-19 00:38 ] · 2BF3D706591787A52A0D748E957B8B52B11B4CBA

Скачать .torrent

Скачать

9 KB

Статус: проверено
Скачан: 0 раз
Размер: 457 MB
terms.php



Быстрый ответ

Имя:

      
Для отправки сообщений необходимо включить JavaScript
Показать сообщения:    

Текущее время: 10-Дек 11:54

Часовой пояс: UTC + 3


Вы можете начинать темы
Вы можете отвечать на сообщения
Вы не можете редактировать свои сообщения
Вы не можете удалять свои сообщения
Вы не можете голосовать в опросах
Вы не можете прикреплять файлы к сообщениям
Вы можете скачивать файлы