Дешифровщик / Britain's Greatest Codebreaker / Codebreaker (Клер Беван, Ник Стэйси / Clare Beavan, Nic Stacey) [2011, Драма, DVDRip]


Статистика раздачи [Обновить пиров]
Размер:  1009 MB   |    Зарегистрирован:  8 месяцев 18 дней   |    Скачан:  0 раз

Полного источника не было: Никогда

Личеров:  15  [  0 KB/s  ]   Подробная статистика пиров
 
   
 
 
 

[Цитировать]

Дешифровщик / Britain's Greatest Codebreaker / Codebreaker
Дата/Год выпуска: 2011
Страна: Великобритания
Жанр: Драма
Продолжительность: 01:21:06
Перевод: Субтитры
Русские субтитры: есть
Формат субтитров: softsub (SRT)
Доп. информация о субтитрах: перевод-Кузнецова Ю.К.
Оригинальная аудиодорожка: английский
Режиссер: Клер Беван, Ник Стэйси / Clare Beavan, Nic Stacey
Телеканал: BBC
Описание: Документальный (биографический) фильм о гениальном британском математике и криптографе Алане Тьюринге, основателе принципа работы современной вычислительной техники, который взломал в период Второй мировой войны код германской "Энигмы", а также позднее заложил основы морфогенеза.Доп. информация: В ролях: Эд Стоппард, Генри Гудман, Пол МакГанн, Аса Бриггс, Стив Возняк, Жан Валентин, Дэвид Левитт, Дэрмот Тьюринг, Кристофер Морком, Ян Стюарт
IMDb: 7,6.
kinopoisk.ru: 8,0.
Сэмпл: http://sendfile.su/1077656
качество: DVDRip
формат: AVI
Видео: Mpeg 4 Video (XVID), 720x400, 16:9, 1598 kbps
Аудио: Mp3, 48khz, 128 kbps, 2 channels

MediaInfo

Britains.Greatest.Codebreaker.2011.BRRip.XviD.MP3.avi
Format : AVI
Format/Info : Audio Video Interleave
File size : 1 009 MiB
Duration : 1h 21mn
Overall bit rate : 1 739 Kbps
Movie name : RARBG.COM - Britains.Greatest.Codebreaker.2011.BRRip.XviD.MP3-RARBG
Writing application : Lavf56.9.100
Comment : RARBG.COM - Britains.Greatest.Codebreaker.2011.BRRip.XviD.MP3-RARBG
Video
ID : 0
Format : MPEG-4 Visual
Format profile : Simple@L5
Format settings, BVOP : No
Format settings, QPel : No
Format settings, GMC : No warppoints
Format settings, Matrix : Default (H.263)
Codec ID : XVID
Codec ID/Hint : XviD
Duration : 1h 21mn
Bit rate : 1 598 Kbps
Width : 720 pixels
Height : 400 pixels
Display aspect ratio : 16:9
Frame rate : 25.000 fps
Color space : YUV
Chroma subsampling : 4:2:0
Bit depth : 8 bits
Scan type : Progressive
Compression mode : Lossy
Bits/(Pixel*Frame) : 0.222
Stream size : 927 MiB (92%)
Title : RARBG.COM - Britains.Greatest.Codebreaker.2011.BRRip.XviD.MP3-RARBG
Writing library : Lavc56.5.100
Audio
ID : 1
Format : MPEG Audio
Format version : Version 1
Format profile : Layer 3
Mode : Joint stereo
Mode extension : MS Stereo
Codec ID : 55
Codec ID/Hint : MP3
Duration : 1h 21mn
Bit rate mode : Constant
Bit rate : 128 Kbps
Channel(s) : 2 channels
Sampling rate : 48.0 KHz
Compression mode : Lossy
Stream size : 74.3 MiB (7%)
Alignment : Aligned on interleaves
Interleave, duration : 24 ms (0.60 video frame)
Interleave, preload duration : 24 ms
Title : Britains.Greatest.Codebreaker.2011.BRRip.XviD.MP3

Текст субтитров

459
00:38:04,241 --> 00:38:10,441
Он мог видеть куда движутся технологии и искал ответ на главный филосовский вопрос.
460
00:38:11,681 --> 00:38:13,761
Может ли машина думать?
461
00:38:15,561 --> 00:38:17,641
Почему что-то от человека не может остаться в живых?
462
00:38:21,121 --> 00:38:22,241
Я не сумасшедший.
463
00:38:22,281 --> 00:38:27,041
Я не верю,что сейчас возможно перенести индивидуальное сознание в машину
464
00:38:27,081 --> 00:38:29,361
может через несколько лет,кто знает?
465
00:38:29,401 --> 00:38:31,401
Сейчас я только хочу спросить
466
00:38:31,441 --> 00:38:37,281
Не можем ли мы поместить человеческий разум в искусственный сосуд,
467
00:38:37,801 --> 00:38:42,321
в нечто постоянное,
он останется там,обучится

Скриншоты








[teatrix.ru].t20209.torrent 
Торрент: Зарегистрирован [ 2016-03-19 00:55 ] · 3953E4C69714BDE9DC715007FFBA224AB468500E

Скачать .torrent

Скачать

80 KB

Статус: проверено
Скачан: 0 раз
Размер: 1009 MB
terms.php



Быстрый ответ

Имя:

      
Для отправки сообщений необходимо включить JavaScript
Показать сообщения:    

Текущее время: 06-Дек 13:15

Часовой пояс: UTC + 3


Вы можете начинать темы
Вы можете отвечать на сообщения
Вы не можете редактировать свои сообщения
Вы не можете удалять свои сообщения
Вы не можете голосовать в опросах
Вы не можете прикреплять файлы к сообщениям
Вы можете скачивать файлы