(Classical) Rossini - La Cenerentola (Зара Долуханова, Анатолий Орфенов, Константин Поляев, Евгений Белов - Онисим Брон) - ?, FLAC (image+.cue) lossless


 

[Цитировать]

Rossini - La Cenerentola (Зара Долуханова, Анатолий Орфенов, Константин Поляев, Евгений Белов - Онисим Брон)
Жанр: Classical
Страна-производитель диска: Российская Федерация
Год издания диска: ?
Издатель (лейбл): Aquarius
Номер по каталогу: AQVR 135-2
Дата записи: 1950
Аудиокодек: FLAC
Тип рипа: image+.cue
Битрейт аудио: lossless
Продолжительность: 2 CD, 02:04:19
Источник: собственный рип
сайт-источник/ник/другое: Из личной коллекции
Наличие сканов в содержимом раздачи: да
Треклист:

ТреклистCD1

CD 1
01. Увертюра [00:07:49]
02. Действие 1. № 1. Интродукция 'Нет, нет, нет, - не видал весь белый свет' (Клоринда, Тисба) [00:01:36]
03. 'Одиноко жил король...' (Золушка, Клоринда, Тисба) [00:03:23]
04. 'Мне кусочек хлеба дай...' (Алидоро, Клоринда, Тисба, Золушка) [00:01:38]
05. 'Рамиро нас послал предупредить...' (Хор, Клоринда, Тисба, Золушка, Алидоро) [00:03:08]
06. Речитатив 'Вот за труд Ваш награда' (Клоринда, Золушка, Алидоро, Тисба) [00:01:34]
07. № 2. Каватина 'О, прелестное баронское потомство...' (Дон Маньифико) [00:05:28]
08. Речитатив 'Позвольте доложить Вам...' (Клоринда, Тисба, Дон Маньифико) [00:00:49]
09. Сцена 'Здесь никого... Куда ж они девались?' (Рамиро) [00:03:09]
10. № 3. Дуэт 'Одиноко жил...' (Золушка, Рамиро) [00:00:29]
11. Дуэт (прод.) 'Чудный свет её очей' (Рамиро, Золушка) [00:05:05]
12. Дуэт (прод.) 'Замарашка, ко мне!' (Клоринда, Тисба, Рамиро, Золушка) [00:02:20]
13. Речитатив 'В чём тут дело?' (Рамиро, Дон Маньифико) [00:01:23]
14. № 4. Хор 'Спешите, принц!..'; Каватина 'В майский день...' (Дандини, Клоринда, Тисба, Дон Маньифико, Рамиро) [00:06:10]
15. Речитатив 'Признаться, я в восторге!' (Дандини, Клоринда, Дон Маньифико, Рамиро, Золушка, Тисба) [00:02:25]
16. № 5. Квинтет. 'Синьор, мне милость окажите!' (Золушка, Дон Маньифико, Дандини, Рамиро) [00:04:18]
17. Квинтет (прод.) 'Вот, в этом списочке...' (Алидоро, Дон Маньифико, Золушка, Рамиро, Дандини) [00:02:26]
18. Квинтет (прод.) 'Столбняк на всех напал от изумленья...' (Дон Маньифико, Золушка, Рамиро, Алидоро, Дандини) [00:04:00]
19. Речитатив 'Сейчас прибудет мой экипаж...' (Алидоро, Золушка) [00:00:57]
20. 'Как рада Золушка попасть в дворец огромный...' (Золушка) (Malcolm’s cabaletta from Rossini’s La Donna del Lago) [00:03:45]

CD2

CD 2
01. № 7. Финал I: Дуэт 'С глазу на глаз, да потише...' (Рамиро, Дандини, Клоринда, Тисба) [00:04:38]
02. 'Просим, входите! Смелей вперёд!' (Хор, Рамиро, Дандини, Алидоро, Клоринда, Тисба, все) [00:02:22]
03. 'Скрыто лицо фатой, но всех она пленила...' (Хор, Золушка, Рамиро, Дандини, Клоринда, Тисба, все) [00:05:36]
04. 'Что это за явленье? Немеет мой язык...' (все) [00:02:15]
05. 'К столу прошу, Высочество...' (все) [00:04:42]
06. Действие 2. Вступление [00:01:07]
07. № 8. Речитатив 'Кто эта незнакомка?' (Рамиро, Дандини, Золушка, Алидоро) [00:02:13]
08. Речитатив 'Если ничто тебя не остановит...' (Рамиро, Алидоро) [00:01:16]
09. № 9. Ария 'Надо искать...' (Рамиро, Хор) [00:04:09]
10. Речитатив 'Под кровом тёмной ночи...' (Алидоро, Дандини, Дон Маньифико) [00:02:21]
11. № 10. Дуэт 'По секрету должен тайну я открыть' (Дандини, Дон Маньифико) [00:06:05]
12. № 11. Канцона 'Одиноко жил король...' (Золушка) [00:01:55]
13. Речитатив 'Браслет мой милый...' (Золушка, Клоринда, Дон Маньифико, Тисба) [00:02:23]
14. № 12. Интермеццо (Гроза) [00:02:35]
15. Речитатив 'Карета принца сломалась у Ваших ворот!' (Дандини, Дон Маньифико, Рамиро, Клоринда, Золушка, Тисба) [00:02:12]
16. № 13. Секстет 'Положенье сложным стало, не избегнуть нам скандала' (все) [00:07:07]
17. № 14. Финал II: 'Колесо Фортуны вертится неустанно' (Хор) [00:01:43]
18. Сцена 'Супруг мой, простите...' (Рамиро, Золушка) [00:01:32]
19. Рондо 'В горе всю жизнь прожила я...' (все) [00:06:00]
Исполнители:
Анджелина (Золушка) ........................ Зара Долуханова
Рамиро, принц Салерно ..................... Анатолий Орфенов
Дандини, его камердинер ...................... Евгений Белов
Дон Маньифико, отчим Анджелины ........... Константин Поляев
Алидоро, философ и наставник принца ...... Геннадий Троицкий
Клоринда, старшая дочь Дона Маньифико ... Кира Константинова
Тисба, младшая дочь Дона Маньифико ....... Нина Поставничева
Хор: Московского Радио
Оркестр: Московского Радио
Дирижер: Онисим Брон

Лог создания рипа

CD1

CD1
Exact Audio Copy V1.0 beta 3 from 29. August 2011
EAC extraction logfile from 12. January 2015, 20:05
Onissim Bron / Rossini - La Cenerentola
Used drive : HL-DT-STDVDRAM GSA-T40N Adapter: 0 ID: 0
Read mode : Secure
Utilize accurate stream : Yes
Defeat audio cache : Yes
Make use of C2 pointers : No
Read offset correction : 667
Overread into Lead-In and Lead-Out : No
Fill up missing offset samples with silence : Yes
Delete leading and trailing silent blocks : No
Null samples used in CRC calculations : Yes
Used interface : Native Win32 interface for Win NT & 2000
Used output format : User Defined Encoder
Selected bitrate : 32 kBit/s
Quality : High
Add ID3 tag : No
Command line compressor : C:\Program Files\Exact Audio Copy\Flac\flac.exe
Additional command line options : -V -8 -T "Date=%year%" -T "Genre=%genre%" %source%
TOC of the extracted CD
Track | Start | Length | Start sector | End sector
---------------------------------------------------------
1 | 0:00.00 | 7:49.30 | 0 | 35204
2 | 7:49.30 | 1:36.35 | 35205 | 42439
3 | 9:25.65 | 3:23.10 | 42440 | 57674
4 | 12:49.00 | 1:38.67 | 57675 | 65091
5 | 14:27.67 | 3:08.33 | 65092 | 79224
6 | 17:36.25 | 1:34.47 | 79225 | 86321
7 | 19:10.72 | 5:28.55 | 86322 | 110976
8 | 24:39.52 | 0:49.53 | 110977 | 114704
9 | 25:29.30 | 3:09.27 | 114705 | 128906
10 | 28:38.57 | 0:29.20 | 128907 | 131101
11 | 29:08.02 | 5:05.18 | 131102 | 153994
12 | 34:13.20 | 2:20.32 | 153995 | 164526
13 | 36:33.52 | 1:23.13 | 164527 | 170764
14 | 37:56.65 | 6:10.32 | 170765 | 198546
15 | 44:07.22 | 2:25.33 | 198547 | 209454
16 | 46:32.55 | 4:18.10 | 209455 | 228814
17 | 50:50.65 | 2:26.70 | 228815 | 239834
18 | 53:17.60 | 4:00.27 | 239835 | 257861
19 | 57:18.12 | 0:57.50 | 257862 | 262186
20 | 58:15.62 | 3:45.13 | 262187 | 279074
Range status and errors
Selected range
Filename D:\Rip\Rossini.La_Cenerentola-Onissim_Bron,1950.2CD(Aquarius,135-2)\CD1\Onissim Bron - Rossini - La Cenerentola.wav
Peak level 99.3 %
Extraction speed 4.2 X
Range quality 100.0 %
Test CRC AEAB858D
Copy CRC AEAB858D
Copy OK
No errors occurred
AccurateRip summary
Track 1 not present in database
Track 2 not present in database
Track 3 not present in database
Track 4 not present in database
Track 5 not present in database
Track 6 not present in database
Track 7 not present in database
Track 8 not present in database
Track 9 not present in database
Track 10 not present in database
Track 11 not present in database
Track 12 not present in database
Track 13 not present in database
Track 14 not present in database
Track 15 not present in database
Track 16 not present in database
Track 17 not present in database
Track 18 not present in database
Track 19 not present in database
Track 20 not present in database
None of the tracks are present in the AccurateRip database
End of status report
==== Log checksum E9A8DCF2313992ED3F27AF4F3A4BECFD19F7CA64A8245B454D09C7E5864C78EF ====

CD2

CD2
Exact Audio Copy V1.0 beta 3 from 29. August 2011
EAC extraction logfile from 13. January 2015, 21:13
Onissim Bron / Rossini - La Cenerentola
Used drive : HL-DT-STDVDRAM GSA-T40N Adapter: 0 ID: 0
Read mode : Secure
Utilize accurate stream : Yes
Defeat audio cache : Yes
Make use of C2 pointers : No
Read offset correction : 667
Overread into Lead-In and Lead-Out : No
Fill up missing offset samples with silence : Yes
Delete leading and trailing silent blocks : No
Null samples used in CRC calculations : Yes
Used interface : Native Win32 interface for Win NT & 2000
Used output format : User Defined Encoder
Selected bitrate : 32 kBit/s
Quality : High
Add ID3 tag : No
Command line compressor : C:\Program Files\Exact Audio Copy\Flac\flac.exe
Additional command line options : -V -8 -T "Date=%year%" -T "Genre=%genre%" %source%
TOC of the extracted CD
Track | Start | Length | Start sector | End sector
---------------------------------------------------------
1 | 0:00.00 | 4:38.62 | 0 | 20911
2 | 4:38.62 | 2:22.48 | 20912 | 31609
3 | 7:01.35 | 5:36.05 | 31610 | 56814
4 | 12:37.40 | 2:15.12 | 56815 | 66951
5 | 14:52.52 | 4:42.10 | 66952 | 88111
6 | 19:34.62 | 1:07.28 | 88112 | 93164
7 | 20:42.15 | 2:13.22 | 93165 | 103161
8 | 22:55.37 | 1:16.10 | 103162 | 108871
9 | 24:11.47 | 4:09.13 | 108872 | 127559
10 | 28:20.60 | 2:21.52 | 127560 | 138186
11 | 30:42.37 | 6:05.20 | 138187 | 165581
12 | 36:47.57 | 1:55.38 | 165582 | 174244
13 | 38:43.20 | 2:23.55 | 174245 | 185024
14 | 41:07.00 | 2:35.67 | 185025 | 196716
15 | 43:42.67 | 2:12.20 | 196717 | 206636
16 | 45:55.12 | 7:07.28 | 206637 | 238689
17 | 53:02.40 | 1:43.37 | 238690 | 246451
18 | 54:46.02 | 1:32.18 | 246452 | 253369
19 | 56:18.20 | 6:00.30 | 253370 | 280399
Range status and errors
Selected range
Filename D:\Rip\Rossini.La_Cenerentola-Onissim_Bron,1950.2CD(Aquarius,135-2)\CD2\Onissim Bron - Rossini - La Cenerentola.wav
Peak level 100.0 %
Extraction speed 4.2 X
Range quality 99.9 %
Test CRC E830465E
Copy CRC E830465E
Copy OK
No errors occurred
AccurateRip summary
Track 1 not present in database
Track 2 not present in database
Track 3 not present in database
Track 4 not present in database
Track 5 not present in database
Track 6 not present in database
Track 7 not present in database
Track 8 not present in database
Track 9 not present in database
Track 10 not present in database
Track 11 not present in database
Track 12 not present in database
Track 13 not present in database
Track 14 not present in database
Track 15 not present in database
Track 16 not present in database
Track 17 not present in database
Track 18 not present in database
Track 19 not present in database
None of the tracks are present in the AccurateRip database
End of status report
==== Log checksum 876779C67DD795031C35926488080A85A0E87251168C39BF1166543C8F85F631 ====

Содержание индексной карты (.CUE)

CD1

CD1
REM GENRE Opera
REM DATE 1950
REM DISCID 2A0E8914
REM COMMENT "ExactAudioCopy v1.0b3"
PERFORMER "Onissim Bron"
TITLE "Rossini - La Cenerentola"
FILE "Onissim Bron - Rossini - La Cenerentola.flac" WAVE
TRACK 01 AUDIO
TITLE "Увертюра"
PERFORMER "Onissim Bron"
INDEX 01 00:00:00
TRACK 02 AUDIO
TITLE "Действие 1. № 1. Интродукция 'Нет, нет, нет, - не видал весь белый свет' (Кло..."
PERFORMER "Onissim Bron"
INDEX 01 07:49:30
TRACK 03 AUDIO
TITLE "'Одиноко жил король...' (Золушка, Клоринда, Тисба)"
PERFORMER "Onissim Bron"
INDEX 01 09:25:65
TRACK 04 AUDIO
TITLE "'Мне кусочек хлеба дай...' (Алидоро, Клоринда, Тисба, Золушка)"
PERFORMER "Onissim Bron"
INDEX 01 12:49:00
TRACK 05 AUDIO
TITLE "'Рамиро нас послал предупредить...' (Хор, Клоринда, Тисба, Золушка, Алидоро)"
PERFORMER "Onissim Bron"
INDEX 01 14:27:67
TRACK 06 AUDIO
TITLE "Речитатив 'Вот за труд Ваш награда' (Клоринда, Золушка, Алидоро, Тисба)"
PERFORMER "Onissim Bron"
INDEX 01 17:36:25
TRACK 07 AUDIO
TITLE "№ 2. Каватина 'О, прелестное баронское потомство...' (Дон Маньифико)"
PERFORMER "Onissim Bron"
INDEX 01 19:10:72
TRACK 08 AUDIO
TITLE "Речитатив 'Позвольте доложить Вам...' (Клоринда, Тисба, Дон Маньифико)"
PERFORMER "Onissim Bron"
INDEX 01 24:39:52
TRACK 09 AUDIO
TITLE "Сцена 'Здесь никого... Куда ж они девались?' (Рамиро)"
PERFORMER "Onissim Bron"
INDEX 01 25:29:30
TRACK 10 AUDIO
TITLE " № 3. Дуэт 'Одиноко жил...' (Золушка, Рамиро)"
PERFORMER "Onissim Bron"
INDEX 01 28:38:57
TRACK 11 AUDIO
TITLE "Дуэт (прод.) 'Чудный свет её очей' (Рамиро, Золушка)"
PERFORMER "Onissim Bron"
INDEX 01 29:08:02
TRACK 12 AUDIO
TITLE "Дуэт (прод.) 'Замарашка, ко мне!' (Клоринда, Тисба, Рамиро, Золушка)"
PERFORMER "Onissim Bron"
INDEX 01 34:13:20
TRACK 13 AUDIO
TITLE "Речитатив 'В чём тут дело?' (Рамиро, Дон Маньифико)"
PERFORMER "Onissim Bron"
INDEX 01 36:33:52
TRACK 14 AUDIO
TITLE "№ 4. Хор 'Спешите, принц!..'; Каватина 'В майский день...' (Дандини, Клоринда..."
PERFORMER "Onissim Bron"
INDEX 01 37:56:65
TRACK 15 AUDIO
TITLE "Речитатив 'Признаться, я в восторге!' (Дандини, Клоринда, Дон Маньифико, Рами..."
PERFORMER "Onissim Bron"
INDEX 01 44:07:22
TRACK 16 AUDIO
TITLE "№ 5. Квинтет. 'Синьор, мне милость окажите!' (Золушка, Дон Маньифико, Дандини..."
PERFORMER "Onissim Bron"
INDEX 01 46:32:55
TRACK 17 AUDIO
TITLE "Квинтет (прод.) 'Вот, в этом списочке...' (Алидоро, Дон Маньифико, Золушка, Р..."
PERFORMER "Onissim Bron"
INDEX 01 50:50:65
TRACK 18 AUDIO
TITLE "Квинтет (прод.) 'Столбняк на всех напал от изумленья...' (Дон Маньифико, Золу..."
PERFORMER "Onissim Bron"
INDEX 01 53:17:60
TRACK 19 AUDIO
TITLE "Речитатив 'Сейчас прибудет мой экипаж...' (Алидоро, Золушка)"
PERFORMER "Onissim Bron"
INDEX 01 57:18:12
TRACK 20 AUDIO
TITLE "'Как рада Золушка попасть в дворец огромный...' (Золушка) (Malcolm’s cabalett..."
PERFORMER "Onissim Bron"
INDEX 01 58:15:62

CD2

CD2
Exact Audio Copy V1.0 beta 3 from 29. August 2011
EAC extraction logfile from 13. January 2015, 21:13
Onissim Bron / Rossini - La Cenerentola
Used drive : HL-DT-STDVDRAM GSA-T40N Adapter: 0 ID: 0
Read mode : Secure
Utilize accurate stream : Yes
Defeat audio cache : Yes
Make use of C2 pointers : No
Read offset correction : 667
Overread into Lead-In and Lead-Out : No
Fill up missing offset samples with silence : Yes
Delete leading and trailing silent blocks : No
Null samples used in CRC calculations : Yes
Used interface : Native Win32 interface for Win NT & 2000
Used output format : User Defined Encoder
Selected bitrate : 32 kBit/s
Quality : High
Add ID3 tag : No
Command line compressor : C:\Program Files\Exact Audio Copy\Flac\flac.exe
Additional command line options : -V -8 -T "Date=%year%" -T "Genre=%genre%" %source%
TOC of the extracted CD
Track | Start | Length | Start sector | End sector
---------------------------------------------------------
1 | 0:00.00 | 4:38.62 | 0 | 20911
2 | 4:38.62 | 2:22.48 | 20912 | 31609
3 | 7:01.35 | 5:36.05 | 31610 | 56814
4 | 12:37.40 | 2:15.12 | 56815 | 66951
5 | 14:52.52 | 4:42.10 | 66952 | 88111
6 | 19:34.62 | 1:07.28 | 88112 | 93164
7 | 20:42.15 | 2:13.22 | 93165 | 103161
8 | 22:55.37 | 1:16.10 | 103162 | 108871
9 | 24:11.47 | 4:09.13 | 108872 | 127559
10 | 28:20.60 | 2:21.52 | 127560 | 138186
11 | 30:42.37 | 6:05.20 | 138187 | 165581
12 | 36:47.57 | 1:55.38 | 165582 | 174244
13 | 38:43.20 | 2:23.55 | 174245 | 185024
14 | 41:07.00 | 2:35.67 | 185025 | 196716
15 | 43:42.67 | 2:12.20 | 196717 | 206636
16 | 45:55.12 | 7:07.28 | 206637 | 238689
17 | 53:02.40 | 1:43.37 | 238690 | 246451
18 | 54:46.02 | 1:32.18 | 246452 | 253369
19 | 56:18.20 | 6:00.30 | 253370 | 280399
Range status and errors
Selected range
Filename D:\Rip\Rossini.La_Cenerentola-Onissim_Bron,1950.2CD(Aquarius,135-2)\CD2\Onissim Bron - Rossini - La Cenerentola.wav
Peak level 100.0 %
Extraction speed 4.2 X
Range quality 99.9 %
Test CRC E830465E
Copy CRC E830465E
Copy OK
No errors occurred
AccurateRip summary
Track 1 not present in database
Track 2 not present in database
Track 3 not present in database
Track 4 not present in database
Track 5 not present in database
Track 6 not present in database
Track 7 not present in database
Track 8 not present in database
Track 9 not present in database
Track 10 not present in database
Track 11 not present in database
Track 12 not present in database
Track 13 not present in database
Track 14 not present in database
Track 15 not present in database
Track 16 not present in database
Track 17 not present in database
Track 18 not present in database
Track 19 not present in database
None of the tracks are present in the AccurateRip database
End of status report
==== Log checksum 876779C67DD795031C35926488080A85A0E87251168C39BF1166543C8F85F631 ====

Синопсис оперы

La Cenerentola, ossia La bontà in trionfoОпера в двух действиях Джоаккино Россини
на либретто (по-итальянски) Якопо Ферретти,
основанное на трехактном французском либретто Шарля Гийома Этьена,
написанном для опер Никколо Изора и Даниэля Штейбельта.Действующие лица:
Анджелина (Золушка) - меццо-сопрано
Рамиро, принц Салерно - тенор
Дандини, его камердинер - баритон
Дон Маньифико, барон ди Монтефьясконе, отчим Анджелины - бас
Алидоро, философ и наставник принца - бас
Клоринда, старшая дочь Дона Маньифико - сопрано
Тисба, младшая дочь Дона Маньифико - меццо-сопрано
Придворные принца Рамиро
Время действия: неопределенное, но манеры и костюмы XVIII века.
Место действия: Салерно.
Первое исполнение: Рим, 25 января 1817 года.
ДЕЙСТВИЕ I
Сцена 1. В общем-то, любое хорошее контральто могло бы спеть затейливый маленький мотив («Una volta c'era un re» — «Жил-был король»), с которого начинается опера и который звучит, пока наша героиня готовит кофе для двух своих глупых сводных сестер, Клоринды и Тисбы. Речь в этой балладе идет о короле, который выбрал себе в невесты бедную маленькую хорошенькую девочку, вместо того чтобы жениться на знатной и богатой девице. Вскоре в дом к девушкам приходит гость. Это Алидоро, наставник принца, философ и его друг. Он пришел сюда переодетый нищим. Когда Золушка, в противоположность своим сестрам, любезно и приветливо его встретила, ему стал ясен, по крайней мере, один совет, который он может дать теперь своему господину.
Вместо злой мачехи, которая фигурирует в известной сказке, Россини дает Золушке отчима. Это самодовольный старый дурак, который, хотя теперь и достаточно богат, хочет быть еще богаче. Его имя дон Маньифико. Не успевает он войти, как тут же начинает рассказывать своим дочерям о глупейшем сне, который ему привиделся. Ему приснилось, что он осел, но осел очень богатый. Его ария «Miei rampolli femminini» («Мои дочери») очень напоминает по стилю «Largo al factotum» («Место, раздайся шире, народ») из «Севильского цирюльника».
Когда все наконец оставляют Золушку одну, чтобы она убирала в доме, является принц. Он переодет и ищет себе невесту, которая полюбила бы его самого по себе, а не за то, что он принц. Конечно, он тут же замечает необычайно привлекательную Золушку, которая продолжает свою работу служанки. Она, со своей стороны, столь поражена, видя перед собой такого красивого молодого человека, что роняет тарелку, и та разбивается. Они влюбляются друг в друга с первого взгляда! Но пока они ни слова не говорят друг другу о своем чувстве — иначе это был бы конец истории. Они поют прелестный дуэт «Un soave поп so che» («Сладостное нечто»). Он прерывается в самом конце: сестры зовут Золушку что-то сделать для них. Сердце принца Рамиро уже в плену - но ведь он не знает настоящего имени девушки.
Золушка убегает к своим сестрам. В этот момент входит еще один мужчина; он тоже переодет. Это Дандини, слуга принца, который поменялся костюмом со своим хозяином. Пока он пытается выставить себя принцем (путаясь в латинском тексте), Золушка умоляет своего отчима позволить ей отправиться в этот вечер на бал, на который приглашены все девушки. Естественно, все семейство объединяется в том, чтобы не разрешить ей этого; но действие завершается тем, что Алидоро возвращается, чтобы пообещать нашей героине помощь — точно так же, как в известной всем сказке делает крестная мать Золушки. Все это дает Россини повод написать великолепный концертный номер, завершающий эту сцену: является весь двор принца — отнюдь не по причинам драматургическим, а лишь для того, чтобы усилить звучание и создать мощный эффектный финал.
Сцена 2. Действие происходит во дворце, где Дандини (все еще переодетый принцем) уговаривает каждого выбрать себе невесту. А кто же может прийти, как не Клоринда и Тисба, сводные сестры Золушки? Обе они стараются добиться расположения Дандини, поскольку, конечно, думают, что он и есть принц. Дандини же сбегает от них в другую комнату, где сообщает об этом своему хозяину. В очень быстром и забавном дуэте он говорит ему, что думает об этих двух девушках. Они «ужасно страшные», говорит он. Но целеустремленные девушки стремительно вбегают вслед за Дандини, и, чтобы избавиться от них, он объясняет им, что может жениться только на одной из двух. Другая, говорит он, должна выйти замуж за его слугу. Об этом они, конечно, не подумали. Двое мужчин смеются над девицами. Алидоро тем временем торжественно объявляет о прибытии таинственной дамы. Старый мудрый философ необычайно красиво одел Золушку и привез ее во дворец. Никто не узнает ее, потому что она в маске, но все видят, насколько она красива, и весь двор тут же понимает, что именно она - та самая девушка, на которой должен жениться принц. Действие кончается чудесным хором, в котором каждый поет о том, что он чувствует.
ДЕЙСТВИЕ II
Сцена 1. Только две глупые сестры не разделяют чувств финального хора первого действия. Они считают, что незнакомка выглядит столь похоже на их служанку, что принцу совершенно невозможно в нее влюбиться. Скорее, каждая думает, что именно она выиграет пари на этих «скачках» - и, естественно, они ссорятся между собой. Тем временем Дандини сам влюбляется в Золушку. Все еще переодетый принцем, он делает ей предложение, но она отвечает, что влюблена в его слугу. До слуха принца доносится это признание, и он (все еще переодетый в костюм Дандини) выходит вперед, чтобы сделать ей предложение. Она признается, что любит его, как и говорила; но сначала он должен узнать, кто же она. И вот она дает ему браслет, который является половиной к тому, который носит она сама, как ключ к разгадке — своего рода аналогия хрустальной туфельки во всем известной сказке. Что касается дона Маньифико, то он уверен, что одна из его дочерей — либо Клоринда, либо Тисба - выйдет замуж за принца. Он грезит, каким он будет могущественным, как все будут стремиться получить его расположение и как он всех будет пинать ногой. Обо всем этом он поет в арии «Sia qualunque delle figlie» («Пусть одна из дочерей»). Но старого глупца ждет быстрое разочарование. Он, как и все остальные, думает, что Дандини (слуга) и есть настоящий принц, ведь он носит его одежды. Но Дандини входит и сообщает старому барону, кто он есть на самом деле (дуэт «Un segreto d'importanza» - «Важная тайна»). Дон Маньифико раздосадован, он негодует, он в бешенстве. Но Дандини, получивший отказ Золушки, только позабавился.
Сцена 2 происходит снова в доме дона Маньифико. Золушка опять поет свою маленькую балладу о короле, который выбрал себе жену только за ее доброту. Она все еще не знает, что это именно принц, переодевшийся в своего слугу, влюблен в нее. За окнами дома разыгрывается настоящая буря. (Россини любил звуками живописать грозу, и данный эпизод - великолепный пример этого.) Пока она бушует, принц и Дандини, теперь наконец каждый в своей одежде, ищут укрытие. Они стучатся в дом, и Золушка, стесняясь показать незнакомцам свое лицо, открывает им дверь. Они видят лишь ее руку, а на руке - браслет. Принц делает шаг ей навстречу, и наконец Золушка узнает, что человек, которого она любит, совсем не слуга, а настоящий принц Рамиро. Рамиро берет ее за руку и говорит, что она и только она будет его невестой. Родственники Золушки — дон Маньифико, Клоринда и Тизбе — все потрясены. Они в ужасе. В конце концов дон Маньифико решает просить у принца прощения. Принц не хочет иметь с ним никакого дела, но хорошая добрая Золушка в блестящем рондо «Nacqui all'affanno е al pianto» («Рожденная для страданий и слез») просит за родственников, которые так скверно обходились с нею. Принц уступает своей сияющей от счастья невесте, и опера завершается всеобщим весельем. Теперь все, я смею надеяться, зажили счастливо.



Показать сообщения:    

Текущее время: 07-Дек 00:55

Часовой пояс: UTC + 3


Вы не можете начинать темы
Вы не можете отвечать на сообщения
Вы не можете редактировать свои сообщения
Вы не можете удалять свои сообщения
Вы не можете голосовать в опросах
Вы не можете прикреплять файлы к сообщениям
Вы не можете скачивать файлы