(Classical) Las Mujeres y Cuerdas - Songs and guitar pieces from Spain and Italy, c.1800: Soler, Sor, Carulli, Giuliani, Mertz - Marta Almajano, Jose Miguel Moreno - 2009, FLAC (image+.cue) lossless


 

[Цитировать]

Las Mujeres y Cuerdas - Songs and guitar pieces from Spain and Italy, c.1800: Soler, Sor, Carulli, Giuliani, Mertz - Marta Almajano, Jose Miguel Moreno
Жанр: Classical
Страна-производитель диска: Spain
Год издания диска: 2009
Издатель (лейбл): Glossa
Номер по каталогу: GCD C80202
Дата записи: 1994, 1995
Аудиокодек: FLAC
Тип рипа: image+.cue
Битрейт аудио: lossless
Продолжительность: 70:39
Источник: собственный рип
Наличие сканов в содержимом раздачи: да
Треклист:
Las Mujeres y Cuerdas
Songs and guitar pieces from Spain and Italy, c.1800
Vicente Martín y Soler
[1] La semplice
[2] La volubile
[3] La costanza
[4] La mercede
Ferdinando Carulli
[5] Andante affetuoso
Mauro Giuliani
[6] Le dimore amor non ama
[7] Quando sarà quel dì
[8] Ad altro laccio
[9] Andantino sostenuto
[10] Confuso, smarrito
[11] Amor, perché m'accendi
[12] Di tanti palpiti
Fernando Sor
[13] Mouvement de prière religieuse
[14] Lagrime
[15] Perduta l'anima
[16] Povero cor
[17] Io mentitor!
[18] Nel cor più non mi sento
Johann Kaspar Mertz
[19] Lied ohne Worte
Fernando Sor
[20] Si dices que mis ojos
[21] Muchacha, y la vergüenza
[22] Mis descuidados ojos
[23] Seguidillas del Requiem eternam
[24] Las mujeres y cuerdas
Исполнители:
Marta Almajano soprano
Jose Miguel Moreno romantic guitar

Лог создания рипа

Exact Audio Copy V1.0 beta 3 from 29. August 2011
EAC extraction logfile from 15. May 2014, 16:35
Marta Almajano, Jose Miguel Moreno / Las Mujeres y Cuerdas - Songs and guitar pieces from Spain and Italy, c.1800
Used drive : HL-DT-STDVDRRW GWA-4164B Adapter: 5 ID: 0
Read mode : Secure
Utilize accurate stream : Yes
Defeat audio cache : Yes
Make use of C2 pointers : No
Read offset correction : 102
Overread into Lead-In and Lead-Out : No
Fill up missing offset samples with silence : Yes
Delete leading and trailing silent blocks : No
Null samples used in CRC calculations : Yes
Used interface : Native Win32 interface for Win NT & 2000
Used output format : User Defined Encoder
Selected bitrate : 896 kBit/s
Quality : High
Add ID3 tag : No
Command line compressor : C:\Program Files\Exact Audio Copy\FLAC\FLAC.EXE
Additional command line options : -V -8 %source%
TOC of the extracted CD
Track | Start | Length | Start sector | End sector
---------------------------------------------------------
1 | 0:00.00 | 1:15.67 | 0 | 5691
2 | 1:15.67 | 2:01.03 | 5692 | 14769
3 | 3:16.70 | 2:33.07 | 14770 | 26251
4 | 5:50.02 | 1:29.60 | 26252 | 32986
5 | 7:19.62 | 3:03.30 | 32987 | 46741
6 | 10:23.17 | 3:08.28 | 46742 | 60869
7 | 13:31.45 | 2:03.55 | 60870 | 70149
8 | 15:35.25 | 2:23.25 | 70150 | 80899
9 | 17:58.50 | 4:31.12 | 80900 | 101236
10 | 22:29.62 | 1:14.00 | 101237 | 106786
11 | 23:43.62 | 4:03.67 | 106787 | 125078
12 | 27:47.54 | 6:13.38 | 125079 | 153091
13 | 34:01.17 | 3:37.45 | 153092 | 169411
14 | 37:38.62 | 1:36.40 | 169412 | 176651
15 | 39:15.27 | 3:29.40 | 176652 | 192366
16 | 42:44.67 | 4:06.63 | 192367 | 210879
17 | 46:51.55 | 5:05.10 | 210880 | 233764
18 | 51:56.65 | 1:11.57 | 233765 | 239146
19 | 53:08.47 | 4:56.35 | 239147 | 261381
20 | 58:05.07 | 1:53.18 | 261382 | 269874
21 | 59:58.25 | 1:36.67 | 269875 | 277141
22 | 61:35.17 | 5:39.18 | 277142 | 302584
23 | 67:14.35 | 2:16.15 | 302585 | 312799
24 | 69:30.50 | 1:08.70 | 312800 | 317969
Range status and errors
Selected range
Filename D:\temp\Music\GCD C80202 Las Mujeres y Cuerdas (Marta Almajano, Jose Miguel Moreno)\Las Mujeres y Cuerdas.wav
Peak level 100.0 %
Extraction speed 2.2 X
Range quality 100.0 %
Test CRC 6EBDB6A7
Copy CRC 6EBDB6A7
Copy OK
No errors occurred
AccurateRip summary
Track 1 accurately ripped (confidence 2) [25A7A3E2] (AR v2)
Track 2 accurately ripped (confidence 2) [1C46363B] (AR v2)
Track 3 accurately ripped (confidence 2) [105A2155] (AR v2)
Track 4 accurately ripped (confidence 2) [E0691B00] (AR v2)
Track 5 accurately ripped (confidence 2) [15AD767C] (AR v2)
Track 6 accurately ripped (confidence 2) [68550A8D] (AR v2)
Track 7 accurately ripped (confidence 2) [B08A00EC] (AR v2)
Track 8 accurately ripped (confidence 2) [BDB9743E] (AR v2)
Track 9 accurately ripped (confidence 2) [CCE8C47D] (AR v2)
Track 10 accurately ripped (confidence 2) [F326290C] (AR v2)
Track 11 accurately ripped (confidence 2) [484C7CA5] (AR v2)
Track 12 accurately ripped (confidence 2) [A7F68530] (AR v2)
Track 13 accurately ripped (confidence 2) [BBA94774] (AR v2)
Track 14 accurately ripped (confidence 2) [1FBB6641] (AR v2)
Track 15 accurately ripped (confidence 2) [84E7BC24] (AR v2)
Track 16 accurately ripped (confidence 2) [0C4B41A7] (AR v2)
Track 17 accurately ripped (confidence 2) [9787F13D] (AR v2)
Track 18 accurately ripped (confidence 2) [73878E83] (AR v2)
Track 19 accurately ripped (confidence 2) [9B503878] (AR v2)
Track 20 accurately ripped (confidence 2) [2BD4FAD6] (AR v2)
Track 21 accurately ripped (confidence 2) [CA262C24] (AR v2)
Track 22 accurately ripped (confidence 2) [DC06DCDC] (AR v2)
Track 23 accurately ripped (confidence 2) [A5E02047] (AR v2)
Track 24 accurately ripped (confidence 2) [512CFC50] (AR v2)
All tracks accurately ripped
End of status report
==== Log checksum 4A93E511FCE397B89A6315D8326607AC29B44E148DCA4E4D2965379B80AEE206 ====



Показать сообщения:    

Текущее время: 10-Дек 08:03

Часовой пояс: UTC + 3


Вы не можете начинать темы
Вы не можете отвечать на сообщения
Вы не можете редактировать свои сообщения
Вы не можете удалять свои сообщения
Вы не можете голосовать в опросах
Вы не можете прикреплять файлы к сообщениям
Вы не можете скачивать файлы