(Ballet) Стравинский / Stravinsky - Пульчинелла • Поцелуй феи (Montague, Leggate, Beesley - Philharmonia Orchestra / London Symphony Orchestra, Craft) - 2006, APE (image+.cue) lossless


 

[Цитировать]

Igor Stravinsky - Pulcinella • The Fairy’s Kiss
Жанр: Ballet
Страна-производитель диска: EU
Год издания диска: 2006
Издатель (лейбл): Naxos
Номер по каталогу: 8.557503
Дата записи: 1995-1997
Аудиокодек: APE
Тип рипа: image+.cue
Битрейт аудио: lossless
Продолжительность: 78'23
Источник: собственный рип
Наличие сканов в содержимом раздачи: да
Треклист:
Pulcinella, ballet with song in 1 act, for 3 vocal soloists & orchestra
1. Overture
2. Serenata: Mentre l'erbetta
3. (A) Scherzino;(B) Allegro;(C) Andantino;(D) Allegro
4. Allegretto: Contento forse vivere
5. Allegro assai
5. Allegro (alla breve): Con queste paroline
7. Largo: Sento dire no' ncè pace
8. Chi disse cà la femmena
9. Allegro: Ncè sta quaccuna po'
10. Presto: Una te fa la 'nzemprece
11. Larghetto
12. Allegro alla breve
13. Allegro moderato: Tarantella
14. Andantino: Se tu m'ami
15. Toccata
16. Allegro moderato: Gavotta with two variations (Allegretto, Allegro)
17. Vivo
18. Minuet: Pupillette, fiammette
19. Finale: Allegro assai
Le baiser de la fée (The Fairy’s Kiss), ballet in 4 scenes for orchestra
20. Scene 1
21. Scene 2
22. Scene 3
23. Scene 4
Исполнители:
Diana Montague, mezzo-soprano
Robin Leggate, tenor
Mark Beesley, bass
Philharmonia Orchestra
London Symphony Orchestra
Robert Craft

Лог создания рипа

Exact Audio Copy V1.0 beta 3 from 29. August 2011
EAC extraction logfile from 25. January 2015, 19:54
Stravinsky / Pulcinella • The Fairy's Kiss, Craft
Used drive : TSSTcorpCDDVDW SE-208AB Adapter: 1 ID: 0
Read mode : Secure
Utilize accurate stream : Yes
Defeat audio cache : Yes
Make use of C2 pointers : No
Read offset correction : 6
Overread into Lead-In and Lead-Out : No
Fill up missing offset samples with silence : Yes
Delete leading and trailing silent blocks : No
Null samples used in CRC calculations : Yes
Used interface : Native Win32 interface for Win NT & 2000
Used output format : Monkey's Audio Lossless Encoder
Selected bitrate : High Lossless Compression
Quality : High
Add ID3 tag : Yes
Command line compressor : C:\Program Files (x86)\Exact Audio Copy\MAC\MAC.exe
TOC of the extracted CD
Track | Start | Length | Start sector | End sector
---------------------------------------------------------
1 | 0:00.00 | 1:54.29 | 0 | 8578
2 | 1:54.29 | 2:28.41 | 8579 | 19719
3 | 4:22.70 | 5:59.64 | 19720 | 46708
4 | 10:22.59 | 1:41.39 | 46709 | 54322
5 | 12:04.23 | 1:55.30 | 54323 | 62977
6 | 13:59.53 | 3:32.09 | 62978 | 78886
7 | 17:31.62 | 1:01.55 | 78887 | 83516
8 | 18:33.42 | 0:26.17 | 83517 | 85483
9 | 18:59.59 | 0:32.03 | 85484 | 87886
10 | 19:31.62 | 1:03.34 | 87887 | 92645
11 | 20:35.21 | 0:25.08 | 92646 | 94528
12 | 21:00.29 | 1:10.51 | 94529 | 99829
13 | 22:11.05 | 1:10.27 | 99830 | 105106
14 | 23:21.32 | 2:08.36 | 105107 | 114742
15 | 25:29.68 | 0:55.17 | 114743 | 118884
16 | 26:25.10 | 3:57.72 | 118885 | 136731
17 | 30:23.07 | 1:34.01 | 136732 | 143782
18 | 31:57.08 | 2:13.68 | 143783 | 153825
19 | 34:11.01 | 2:16.68 | 153826 | 164093
20 | 36:27.69 | 7:57.29 | 164094 | 199897
21 | 44:25.23 | 10:48.13 | 199898 | 248510
22 | 55:13.36 | 18:31.68 | 248511 | 331903
23 | 73:45.29 | 4:35.46 | 331904 | 352574
Range status and errors
Selected range
Filename D:\EAC\Stravinsky - Pulcinella • The Fairy's Kiss, Craft.wav
Peak level 93.7 %
Extraction speed 5.3 X
Range quality 100.0 %
Test CRC C1AE514F
Copy CRC C1AE514F
Copy OK
No errors occurred
AccurateRip summary
Track 1 accurately ripped (confidence 7) [F281D8C3] (AR v2)
Track 2 accurately ripped (confidence 7) [FFB70736] (AR v2)
Track 3 accurately ripped (confidence 7) [E0EEC141] (AR v2)
Track 4 accurately ripped (confidence 7) [B0FF092D] (AR v2)
Track 5 accurately ripped (confidence 7) [EB091B90] (AR v2)
Track 6 accurately ripped (confidence 7) [B8E64968] (AR v2)
Track 7 accurately ripped (confidence 7) [4F6AEBD7] (AR v2)
Track 8 accurately ripped (confidence 7) [1421F3A3] (AR v2)
Track 9 accurately ripped (confidence 7) [442ADE67] (AR v2)
Track 10 accurately ripped (confidence 7) [22BEFC4D] (AR v2)
Track 11 accurately ripped (confidence 7) [5E84EB9E] (AR v2)
Track 12 accurately ripped (confidence 7) [594960E4] (AR v2)
Track 13 accurately ripped (confidence 7) [B4B6EEE9] (AR v2)
Track 14 accurately ripped (confidence 7) [43F32236] (AR v2)
Track 15 accurately ripped (confidence 7) [FF9DE03D] (AR v2)
Track 16 accurately ripped (confidence 7) [7D697988] (AR v2)
Track 17 accurately ripped (confidence 7) [CF48B83E] (AR v2)
Track 18 accurately ripped (confidence 7) [95DA54BD] (AR v2)
Track 19 accurately ripped (confidence 7) [54724426] (AR v2)
Track 20 accurately ripped (confidence 7) [D6C7FC2B] (AR v2)
Track 21 accurately ripped (confidence 7) [8C7A8054] (AR v2)
Track 22 accurately ripped (confidence 7) [BD0580BA] (AR v2)
Track 23 accurately ripped (confidence 7) [C13AFCE1] (AR v2)
All tracks accurately ripped
End of status report
---- CUETools DB Plugin V2.1.3
[CTDB TOCID: BFGF.5IS_sf8SVHwnAQk7owgCoA-] found, Submit result: BFGF.5IS_sf8SVHwnAQk7owgCoA- has been confirmed
[96824cb0] (7/7) Accurately ripped
==== Log checksum 28ED71BC9BFC6672484EF19B6C6BE6C9993D1B9B57B19A8FE3E2CE5F7A8979FA ====

Содержание индексной карты (.CUE)

REM GENRE Ballet
REM DATE 1995
REM DISCID 20125D17
REM COMMENT "ExactAudioCopy v1.0b3"
PERFORMER "Stravinsky"
TITLE "Pulcinella • The Fairy's Kiss, Craft"
FILE "Stravinsky - Pulcinella • The Fairy's Kiss, Craft.ape" WAVE
TRACK 01 AUDIO
TITLE "Pulcinella (Ballet in one Act with Song) - Overture"
PERFORMER "Stravinsky"
ISRC HKI190511201
INDEX 01 00:00:00
TRACK 02 AUDIO
TITLE "Pulcinella - Serenata; Mentre l'erbetta"
PERFORMER "Stravinsky"
ISRC HKI190511202
INDEX 01 01:54:29
TRACK 03 AUDIO
TITLE "Pulcinella - A. Scherzino, B. Allegro, C. Andantino, D. Allegro"
PERFORMER "Stravinsky"
ISRC HKI190511203
INDEX 01 04:22:70
TRACK 04 AUDIO
TITLE "Pulcinella - Allegretto; Contento forse vivere"
PERFORMER "Stravinsky"
ISRC HKI190511204
INDEX 01 10:22:59
TRACK 05 AUDIO
TITLE "Pulcinella - Allegro Assai"
PERFORMER "Stravinsky"
ISRC HKI190511205
INDEX 01 12:04:23
TRACK 06 AUDIO
TITLE "Pulcinella - Allegro (alla breve); Con queste paroline"
PERFORMER "Stravinsky"
ISRC HKI190511206
INDEX 01 13:59:53
TRACK 07 AUDIO
TITLE "Pulcinella - Largo; Sento dire no'nce pace"
PERFORMER "Stravinsky"
ISRC HKI190511207
INDEX 01 17:31:62
TRACK 08 AUDIO
TITLE "Pulcinella - Chi disse ca la femmena"
PERFORMER "Stravinsky"
ISRC HKI190511208
INDEX 01 18:33:42
TRACK 09 AUDIO
TITLE "Pulcinella - Allegro; Ncè sta quaccuna po'"
PERFORMER "Stravinsky"
ISRC HKI190511209
INDEX 01 18:59:59
TRACK 10 AUDIO
TITLE "Pulcinella - Presto; Una te fa la 'nzemprece"
PERFORMER "Stravinsky"
ISRC HKI190511210
INDEX 01 19:31:62
TRACK 11 AUDIO
TITLE "Pulcinella - Larghetto"
PERFORMER "Stravinsky"
ISRC HKI190511211
INDEX 01 20:35:21
TRACK 12 AUDIO
TITLE "Pulcinella - Allegro alla breve"
PERFORMER "Stravinsky"
ISRC HKI190511212
INDEX 01 21:00:29
TRACK 13 AUDIO
TITLE "Pulcinella - Allegro moderato; Tarantella"
PERFORMER "Stravinsky"
ISRC HKI190511213
INDEX 01 22:11:05
TRACK 14 AUDIO
TITLE "Pulcinella - Andantino; Se tu m'ami"
PERFORMER "Stravinsky"
ISRC HKI190511214
INDEX 01 23:21:32
TRACK 15 AUDIO
TITLE "Pulcinella - Toccata"
PERFORMER "Stravinsky"
ISRC HKI190511215
INDEX 01 25:29:68
TRACK 16 AUDIO
TITLE "Pulcinella - Allegro moderato; Gavotta with two variations (Allegretto, Allegro)"
PERFORMER "Stravinsky"
ISRC HKI190511216
INDEX 01 26:25:10
TRACK 17 AUDIO
TITLE "Pulcinella - Vivo"
PERFORMER "Stravinsky"
ISRC HKI190511217
INDEX 01 30:23:07
TRACK 18 AUDIO
TITLE "Pulcinella - Minuet; Pupillette, fiammette"
PERFORMER "Stravinsky"
ISRC HKI190511218
INDEX 01 31:57:08
TRACK 19 AUDIO
TITLE "Pulcinella - Finale; Allegro Assai"
PERFORMER "Stravinsky"
ISRC HKI190511218
INDEX 01 34:11:01
TRACK 20 AUDIO
TITLE "The Fairy's Kiss (Ballet in four Acts) - Scene I ; The lullaby in the storm"
PERFORMER "Stravinsky"
ISRC HKI190511220
INDEX 00 36:19:61
INDEX 01 36:27:69
TRACK 21 AUDIO
TITLE "The Fairy's Kiss - Scene II ; A village fête"
PERFORMER "Stravinsky"
ISRC HKI190511221
INDEX 01 44:25:23
TRACK 22 AUDIO
TITLE "The Fairy's Kiss - Scene III ; At the mill"
PERFORMER "Stravinsky"
ISRC HKI190511222
INDEX 01 55:13:36
TRACK 23 AUDIO
TITLE "The Fairy's Kiss - Scene IV ; The lullaby of the Eternal Place"
PERFORMER "Stravinsky"
ISRC HKI190511222
INDEX 01 73:45:29
Доп. информация:
Fine as they are -- and they are as well-played and well-conducted as any recordings of the works ever made -- Robert Craft's otherwise unimpeachable recordings of Stravinsky's The Fairy's Kiss and Pulcinella are too cool for affection and too straight for laughs.
The Fairy's Kiss is Stravinsky's artfully knocked-together pastiche of Tchaikovsky while Pulcinella is his brilliantly cobbled-together pastiche of Pergolesi.
In the right performance, The Fairy's Kiss can be amazingly touching with Tchaikovsky's maudlin melodies treated with the greatest respect and the deepest affection by Stravinsky, while Pulcinella, in the right performance, can be amazingly funny with Pergolesi's spicy melodies treated with a sly wit and, likewise, the deepest affection by the composer.
But Craft, Stravinsky's amanuensis and later his musical legatee, seems unable to bend and so The Fairy's Kiss sounds hard and stiff for and Pulcinella sounds ironic and almost sarcastic.
While the Philharmonia's musicians play with their customary professional virtuosity, Craft favors a lean tone and a narrow sonority with clipped rhythms and quick tempos that vitiates their customary warm and blended sound. The result are performances that one cannot help but admire technically any more than one can help but be put off by emotionally.
Naxos' remastering of the original mid-'90s recordings is crisp and clean.



Показать сообщения:    

Текущее время: 11-Дек 12:56

Часовой пояс: UTC + 3


Вы не можете начинать темы
Вы не можете отвечать на сообщения
Вы не можете редактировать свои сообщения
Вы не можете удалять свои сообщения
Вы не можете голосовать в опросах
Вы не можете прикреплять файлы к сообщениям
Вы не можете скачивать файлы