(Opera) Rossini - Le siege de Corinthe / Россини - Осада Коринфа (Serra, Lippi, Raffanti, Comencini - Genoa Teatro del Carlo Felice Orchestra, Olmi) - 2002, APE (image+.cue) lossless


 

[Цитировать]

Gioachino Rossini (1792-1868) - Le Siège de Corinthe
Жанр: Opera
Страна-производитель диска: Italy
Год издания диска: 2002
Издатель (лейбл): Nuova Era
Номер по каталогу: NE 7373 / 73
Дата записи: 1992
Аудиокодек: APE
Тип рипа: image+.cue
Битрейт аудио: lossless
Продолжительность: 78'11 + 79'05
Источник: собственный рип
Наличие сканов в содержимом раздачи: да
Треклист:

CD1

1. Symphonie
2. Premier Acte: Introduction - Ton ordre, chef des Grecs
3. Premier Acte: Scène et Trio - Depuis long-temps du vainqueur
4. Premier Acte: Scène et Trio - Ta fille m'est promise
5. Premier Acte: Marche et Choeur - La flamme rapide
6. Premier Acte: Scène et Cavatine - Qu'à ma voix la victoire s'arrête
7. Premier Acte: Scène et Quintette - Nous avons triomphé
8. Deuxième Acte: Récitatif et Choeur - L'Hymen lui donne
9. Deuxième Acte: Récitatif et Air - Que vais-je deveni
10. Deuxième Acte: Scène et Duo - Rassure-toi

CD2

1. Deuxième Acte: Récitatif et Ballet - Première part - 'Triomphe, Pamyra'
2. Deuxième Acte: Ballet - Deuxième part
3. Deuxième Acte: Hymne 'Divin prophète'
4. Deuxième Acte: Scène et Finale II 'Pamyra!... Cet autel...'
5. Troisième Acte: Scène, Choeur et Air 'Avançons... oui, ces murs...'
6. Troisième Acte: Scène et Trio 'Cher Cléomène'
7. Troisième Acte: Scène et Air 'Je viens de parcourir'
8. Troisième Acte: Scène et Prière 'L'heure fatale approche'
9. Troisième Acte: Finale III 'Victim volontaire'
Исполнители:
Gioachino Rossini (1792-1868) - Le Siège de Corinthe
Tragédie Lyrique en trois actes de Luigi Balocchi et Alexandre Soumet
Pamira - Luciana Serra (Soprano)
Néoclès - Maurizio Comencini (Tenor)
Maometto - Marcello Lippi (Bass Baritone)
Cléomène - Dano Raffanti (Tenor)
Hiéros (Jero) - Armando Caforio (Tenor)
Omar - Francesco Facini (Bass)
Ismène - Francesca Provvisionato (Soprano)
Adastro - Vito Martino (Tenor)
Genoa Teatro del Carlo Felice Chorus
Prague Philharmonic Chorus
Genoa Teatro del Carlo Felice Orchestra
Paolo Olmi

Лог создания рипа

CD1

Exact Audio Copy V1.0 beta 3 from 29. August 2011
EAC extraction logfile from 10. August 2014, 21:53
Rossini / Le siège de Corinthe, Olmi, CD1
Used drive : TS8XDVDSTRANSCEND Adapter: 1 ID: 0
Read mode : Secure
Utilize accurate stream : Yes
Defeat audio cache : Yes
Make use of C2 pointers : No
Read offset correction : 6
Overread into Lead-In and Lead-Out : No
Fill up missing offset samples with silence : Yes
Delete leading and trailing silent blocks : No
Null samples used in CRC calculations : Yes
Used interface : Native Win32 interface for Win NT & 2000
Used output format : Monkey's Audio Lossless Encoder
Selected bitrate : High Lossless Compression
Quality : High
Add ID3 tag : No
Command line compressor : C:\Program Files (x86)\Exact Audio Copy\MAC\MAC.exe
TOC of the extracted CD
Track | Start | Length | Start sector | End sector
---------------------------------------------------------
1 | 0:00.00 | 9:40.07 | 0 | 43506
2 | 9:40.07 | 2:27.11 | 43507 | 54542
3 | 12:07.18 | 7:55.43 | 54543 | 90210
4 | 20:02.61 | 12:35.11 | 90211 | 146846
5 | 32:37.72 | 2:47.32 | 146847 | 159403
6 | 35:25.29 | 6:03.61 | 159404 | 186689
7 | 41:29.15 | 12:56.23 | 186690 | 244912
8 | 54:25.38 | 2:52.44 | 244913 | 257856
9 | 57:18.07 | 10:52.56 | 257857 | 306812
10 | 68:10.63 | 10:16.52 | 306813 | 353064
Range status and errors
Selected range
Filename D:\EAC\Rossini - Le siège de Corinthe, Olmi, CD1.wav
Peak level 94.4 %
Extraction speed 2.2 X
Range quality 100.0 %
Test CRC 37B1BF49
Copy CRC 37B1BF49
Copy OK
No errors occurred
AccurateRip summary
Track 1 accurately ripped (confidence 1) [73770E17] (AR v1)
Track 2 accurately ripped (confidence 1) [3770EC62] (AR v1)
Track 3 accurately ripped (confidence 1) [DA4BCD32] (AR v1)
Track 4 accurately ripped (confidence 1) [77585D8D] (AR v1)
Track 5 accurately ripped (confidence 1) [CA256B16] (AR v1)
Track 6 accurately ripped (confidence 1) [AA00AC05] (AR v1)
Track 7 accurately ripped (confidence 1) [0A4CDC19] (AR v1)
Track 8 accurately ripped (confidence 1) [80AA9BAA] (AR v1)
Track 9 accurately ripped (confidence 1) [35F30635] (AR v1)
Track 10 accurately ripped (confidence 1) [E8F41EE7] (AR v1)
All tracks accurately ripped
End of status report
---- CUETools DB Plugin V2.1.3
[CTDB TOCID: tXkLlY1hJk2MwNPet1uCKjESb80-] disk not present in database, Submit result: unrecognized or virtual drive
==== Log checksum 8BC0253A84C82D3C57837F5B63E8F71B31453B3E172F561B6197FD22CD2982B7 ====

CD2

Exact Audio Copy V1.0 beta 3 from 29. August 2011
EAC extraction logfile from 10. August 2014, 21:45
Rossini / Le siège de Corinthe, Olmi, CD2
Used drive : TSSTcorpCDDVDW SE-208AB Adapter: 1 ID: 1
Read mode : Secure
Utilize accurate stream : Yes
Defeat audio cache : Yes
Make use of C2 pointers : No
Read offset correction : 6
Overread into Lead-In and Lead-Out : No
Fill up missing offset samples with silence : Yes
Delete leading and trailing silent blocks : No
Null samples used in CRC calculations : Yes
Used interface : Native Win32 interface for Win NT & 2000
Used output format : Monkey's Audio Lossless Encoder
Selected bitrate : High Lossless Compression
Quality : High
Add ID3 tag : No
Command line compressor : C:\Program Files (x86)\Exact Audio Copy\MAC\MAC.exe
TOC of the extracted CD
Track | Start | Length | Start sector | End sector
---------------------------------------------------------
1 | 0:00.00 | 6:55.33 | 0 | 31157
2 | 6:55.33 | 6:37.30 | 31158 | 60962
3 | 13:32.63 | 4:50.29 | 60963 | 82741
4 | 18:23.17 | 15:03.06 | 82742 | 150472
5 | 33:26.23 | 14:23.60 | 150473 | 215257
6 | 47:50.08 | 11:27.48 | 215258 | 266830
7 | 59:17.56 | 9:29.49 | 266831 | 309554
8 | 68:47.30 | 7:10.58 | 309555 | 341862
9 | 75:58.13 | 2:44.72 | 341863 | 354234
Range status and errors
Selected range
Filename D:\EAC\Rossini - Le siège de Corinthe, Olmi, CD2.wav
Peak level 97.6 %
Extraction speed 2.3 X
Range quality 100.0 %
Test CRC 81AA07E1
Copy CRC 81AA07E1
Copy OK
No errors occurred
AccurateRip summary
Track 1 accurately ripped (confidence 1) [50F3F69E] (AR v1)
Track 2 accurately ripped (confidence 1) [829AB89A] (AR v1)
Track 3 accurately ripped (confidence 1) [86605847] (AR v1)
Track 4 accurately ripped (confidence 1) [5DC0FC64] (AR v1)
Track 5 accurately ripped (confidence 1) [49902DD1] (AR v1)
Track 6 accurately ripped (confidence 1) [9227514D] (AR v1)
Track 7 accurately ripped (confidence 1) [F1695DA2] (AR v1)
Track 8 accurately ripped (confidence 1) [98CD2F23] (AR v1)
Track 9 accurately ripped (confidence 1) [1C27CEA0] (AR v1)
All tracks accurately ripped
End of status report
---- CUETools DB Plugin V2.1.3
[CTDB TOCID: a0ZYZ1UMee1AESG4gMQh4kCO99o-] disk not present in database, Submit result: a0ZYZ1UMee1AESG4gMQh4kCO99o- has been uploaded
==== Log checksum 09EDFA3E12B5178439779E69228CED0A1C3FC5DC5ADE15E93F406661CE667D6E ====

Содержание индексной карты (.CUE)

CD1

REM GENRE Opera
REM DATE 1992
REM DISCID 8A12630A
REM COMMENT "ExactAudioCopy v1.0b3"
PERFORMER "Rossini"
TITLE "Le siège de Corinthe, Olmi, CD1"
FILE "Rossini - Le siège de Corinthe, Olmi, CD1.ape" WAVE
TRACK 01 AUDIO
TITLE "Symphonie"
PERFORMER "Rossini"
FLAGS DCP
INDEX 01 00:00:00
TRACK 02 AUDIO
TITLE "Acte 1 - Ton ordre, chef des Grecs"
PERFORMER "Rossini"
FLAGS DCP
INDEX 01 09:40:07
TRACK 03 AUDIO
TITLE "Acte 1 - Depuis long-temps du vainqueur"
PERFORMER "Rossini"
FLAGS DCP
INDEX 01 12:07:18
TRACK 04 AUDIO
TITLE "Acte 1 - Ta fille m'est promise"
PERFORMER "Rossini"
FLAGS DCP
INDEX 01 20:02:61
TRACK 05 AUDIO
TITLE "Acte 1 - La flamme rapide"
PERFORMER "Rossini"
FLAGS DCP
INDEX 01 32:37:72
TRACK 06 AUDIO
TITLE "Acte 1 - Qu'à ma voix la victoire s'arrête"
PERFORMER "Rossini"
FLAGS DCP
INDEX 01 35:25:29
TRACK 07 AUDIO
TITLE "Acte 1 - Nous avons triomphé"
PERFORMER "Rossini"
FLAGS DCP
INDEX 01 41:29:15
TRACK 08 AUDIO
TITLE "Acte 2 - L'Hymen lui donne"
PERFORMER "Rossini"
FLAGS DCP
INDEX 01 54:25:38
TRACK 09 AUDIO
TITLE "Acte 2 - Que vais-je deveni"
PERFORMER "Rossini"
FLAGS DCP
INDEX 01 57:18:07
TRACK 10 AUDIO
TITLE "Acte 2 - Rassure-toi"
PERFORMER "Rossini"
FLAGS DCP
INDEX 01 68:10:63

CD2

REM GENRE Opera
REM DATE 1992
REM DISCID 74127309
REM COMMENT "ExactAudioCopy v1.0b3"
PERFORMER "Rossini"
TITLE "Le siège de Corinthe, Olmi, CD2"
FILE "Rossini - Le siège de Corinthe, Olmi, CD2.ape" WAVE
TRACK 01 AUDIO
TITLE "Acte 2 - Triomphe, Pamyra"
PERFORMER "Rossini"
INDEX 01 00:00:00
TRACK 02 AUDIO
TITLE "Acte 2 - Ballet"
PERFORMER "Rossini"
INDEX 01 06:55:33
TRACK 03 AUDIO
TITLE "Acte 2 - Divin prophète"
PERFORMER "Rossini"
INDEX 01 13:32:63
TRACK 04 AUDIO
TITLE "Acte 2 - Pamyra! ... Cet autel"
PERFORMER "Rossini"
INDEX 01 18:23:17
TRACK 05 AUDIO
TITLE "Acte 3 - Avancous ... oui, ces murs..."
PERFORMER "Rossini"
INDEX 01 33:26:23
TRACK 06 AUDIO
TITLE "Acte 3 - Cher Cléomène"
PERFORMER "Rossini"
INDEX 01 47:50:08
TRACK 07 AUDIO
TITLE "Acte 3 - Je viens de parcourir"
PERFORMER "Rossini"
INDEX 01 59:17:56
TRACK 08 AUDIO
TITLE "Acte 3 - L'heure fatale approche"
PERFORMER "Rossini"
INDEX 01 68:47:30
TRACK 09 AUDIO
TITLE "Acte 3 - Victime volontaire"
PERFORMER "Rossini"
INDEX 01 75:58:13
Доп. информация:
Le siège de Corinthe (The Siege of Corinth) is an opera in three acts by Gioachino Rossini set to a French libretto by Luigi Balocchi and Alexandre Soumet.
The opera is based on the reworking of some of the music from the 1820 opera for Naples, Maometto II, the libretto of which was written by Cesare della Valle.
Le siège was Rossini's first French opera, known also in its Italian version as L'assedio di Corinto.



Показать сообщения:    

Текущее время: 08-Дек 09:05

Часовой пояс: UTC + 3


Вы не можете начинать темы
Вы не можете отвечать на сообщения
Вы не можете редактировать свои сообщения
Вы не можете удалять свои сообщения
Вы не можете голосовать в опросах
Вы не можете прикреплять файлы к сообщениям
Вы не можете скачивать файлы