[TR24][OF] Jules Massenet, Charles Gounod, Jacques Offenbach, Andre Messager, Giuseppe Verdi, Giacomo Puccini - Paris, Mon Amour (Sonya Yoncheva) - 2015 (Opera, Vocal)


Статистика раздачи [Обновить пиров]
Размер:  888 MB   |    Зарегистрирован:  8 месяцев 23 дня   |    Скачан:  0 раз

Полного источника не было: Никогда

Личеров:  80  [  0 KB/s  ]   Подробная статистика пиров
 
   
 
 
 

[Цитировать]

Sonya Yoncheva - Paris, Mon Amour
Формат записи/Источник записи: [TR24][OF]
Наличие водяных знаков: Нет
Год издания/переиздания диска: 2015
Жанр: Opera, Vocal
Издатель(лейбл): Sony Classical
Продолжительность: 55:30
Треклист:
1. Jules Massenet - Hérodiade: Act 1. Scene 1: ''Celui dont la parole'' [05:33];
2. Giacomo Puccini - Le Villi: Act 1. Scena and romanza: ''Se come voi piccina io fossi'' [05:36];
3. Charles Gounod - Sapho: Act 3. Recitative and stanzas: ''Où suis-je?'' [07:20];
4. Jules Massenet - Le Sid: Act 3. Tableau 5: ''Pleurez mes yeux'' [05:57];
5. Jacques Offenbach - Les Contes d'Hoffmann: Act 3. Romance: ''Elle a fui la tourterelle'' [05:11];
6. Giacomo Puccini - La Bohéme: Act III: ''Donde lieta usci'' [03:11];
7. Jules Massenet - Thaïs: Act 3. Tableau 3: ''C'est toi, mon père'' (feat. Etienne Dupuis as Athanael) [05:24];
8. Giuseppe Verdi - La Traviata: Act 1. Scene and Aria: ''È strano!... Follie!... Sempre libera'' (feat. Celso Albelo as Alfredo) [08:20];
9. André Messager - Madame Chrysanthème: Act 3. Scene 8: ''Le jour sous le soleil béni'' [04:10];
10. Charles Lecocq - Les cent vierges (operetta): Act 2. Grande Valse: ''Je soupire et maudis le destin... O Paris, gai séjour de plaisir'' [04:48].
Контейнер: FLAC (*.flac)
Тип рипа: tracks
Разрядность: 24/96
Количество каналов: 2.0
Источник: qobuz
Исполнитель:
Sonya Yoncheva, soprano,
Celso Albelo, tenor (track 8),
Etienne Dupuis, baritone (track 7),
Frédéric Chaslin, conductor,
Orquestra de la Comunitat Valenciana.
Recorded at the Palau de les Arts Reina Sofía, Valencia, January 17, 2014 - January 20, 2014 & January 23, 2014.

Dynamic Range Meter

foobar2000 1.3.6 / Замер динамического диапазона (DR) 1.1.1
Дата отчёта: 2015-08-02 20:06:11
--------------------------------------------------------------------------------
Анализ: Sonya Yoncheva, Orquestra de la Comunitat Valenciana / Paris, mon amour
--------------------------------------------------------------------------------
DR Пики RMS Продолжительность трека
--------------------------------------------------------------------------------
DR12 -0.30 дБ -18.27 дБ 5:33 01-Herodiade, Act I, Scene 1 Celui dont la parole...Il est doux, il est bon
DR14 -0.30 дБ -20.54 дБ 5:37 02-Le Villi, Act I Se come voi piccina io fossi
DR13 -0.40 дБ -19.92 дБ 7:21 03-Sapho, Act III, No. 19 Ou suis-je...O ma lyre immortelle
DR12 -0.30 дБ -18.88 дБ 5:58 04-Le Cid, Act III, Tableau 5 De cet affreux combat....Pleurez, pleurez, mes yeux!
DR15 -0.30 дБ -21.17 дБ 5:12 05-Les Contes d'Hoffmann, Act III, Scene 1 Elle a fui, la torterelle
DR12 -2.45 дБ -22.42 дБ 3:12 06-La Boheme, Act III Donde lieta usci
DR12 -0.30 дБ -18.03 дБ 5:24 07-Thais, Act III, Tableau 3 C'est toi, mon pere
DR14 -0.30 дБ -19.41 дБ 8:21 08-La Traviata, Act I, Scene 5 E strano!.e strano!...Sempre libera
DR13 -2.31 дБ -20.09 дБ 4:11 09-Madame Chrysantheme, Act III, Scene 8 Le jour sous le soleil beni
DR13 -0.35 дБ -19.26 дБ 4:48 10-Les Cent Vierges, Act III, No.10 Je soupire et maudis le destin...O Paris, gai sejour de plaisir
--------------------------------------------------------------------------------
Количество треков: 10
Реальные значения DR: DR13
Частота: 96000 Гц
Каналов: 2
Разрядность: 24
Битрейт: 2250 кбит/с
Кодек: FLAC
================================================================================
[teatrix.ru].t20218.torrent 
Торрент: Зарегистрирован [ 2016-03-19 00:43 ] · 3EAFCCA775E432A328FCA58C4E2A2B10507780EF

Скачать .torrent

Скачать

19 KB

Статус: проверено
Скачан: 0 раз
Размер: 888 MB
terms.php



Быстрый ответ

Имя:

      
Для отправки сообщений необходимо включить JavaScript
Показать сообщения:    

Текущее время: 11-Дек 09:07

Часовой пояс: UTC + 3


Вы можете начинать темы
Вы можете отвечать на сообщения
Вы не можете редактировать свои сообщения
Вы не можете удалять свои сообщения
Вы не можете голосовать в опросах
Вы не можете прикреплять файлы к сообщениям
Вы можете скачивать файлы