(Opera) Gioachino Rossini - Otello / Джоаккино Россини - Отелло (Antonino Fogliani; Jessica Pratt, Michael Spyres, Giorgio Trucco, Ugo Guagliardo, Filippo Adami), XXth Rossini Festival 2008 in Wildbad - 2010, FLAC (image+.cue), lossless


 

[Цитировать]

Gioachino Rossini - Otello / Джоаккино Россини - Отелло (Antonino Fogliani; Jessica Pratt, Michael Spyres, Giorgio Trucco, Ugo Guagliardo, Filippo Adami)
Жанр: Opera
Страна-производитель диска: Германия
Год издания диска: 2010
Издатель (лейбл): Naxos
Дата записи: Июль 2008
Аудиокодек: FLAC
Тип рипа: image+.cue
Битрейт аудио: lossless
Продолжительность: 140:49
Источник: релизер (Sowulo)
Наличие сканов в содержимом раздачи: да
Исполнители:
Otello – Michael Spyres,
Desdemona – Jessica Pratt,
Elmiro Balberigo – Ugo Guagliardo,
Jago – Giorgio Trucco,
Rodrigo – Filippo Adami,
Emilia – Geraldine Chauvet,
Un gondolier – Leonardo Cortellazzi.
Transylvania State Philharmonic Choir, Cluj
Virtuosi Brunensis, Orchestra,
Antonino Fogliani, Conductor.
Recorded live at the Kursaal, Bad, Wildbad, Germany, 12th, 17th, 19th July 2008 for the Jubilee Performance of the XXth Rossini in Wildbad Festival.

Треклист

Disc 1:
Atto I:
01. Sinfonia
02. Introduzione: Viva Otello (Coro)
03. Recitativo: Vincemmo, o prodi (Otello, Doge, Jago, Rodrigo)
04. Cavatina: Ah sì, per voi già sento (Otello)
05. Recitativo: Rodrigo!... Elmiro! (Elmiro, Rodrigo, Jago)
06. Duetto: No, non temer, serena (Jago, Rodrigo)
07. Scena: Inutile è quel pianto (Emilia, Desdemona)
08. Duettino: Vorrei che il tuo pensiero (Desdemona, Emilia)
09. Recitativo: Ma che miro? (Desdemona, Jago, Rodrigo, Elmiro, Emilia)
10. Coro e Finale I: Santo Imen! (Coro, Desdemona, Elmiro, Rodrigo, Emilia)
11. Nel cor d'un padre amante (Elmiro, Rodrigo, Desdemona)
12. Ti parli d’amore: non essermi infida (Rodrigo, Elmiro, Desdemona, Otello, Lucio, Coro)
13. Che brami? (Elmiro, Otello, Desdemona, Rodrigo, Emilia, Lucio, Coro)
14. Parti, crudel (Rodrigo, Otello, Desdemona, Elmiro, Emilia, Lucio, Coro)
Disc 2:
Atto II:
01. Recitativo: Lasciami... È dunque vano (Desdemona, Rodrigo)
02. Aria: Che ascolto! ahimè, che dici? (Rodrigo)
03. Recitativo: M’abbandonò, disparve (Desdemona, Emilia)
04. Scena e duetto: Che feci?... ove mi trasse (Otello, Jago)
05. Non m'inganno (Otello, Jago)
06. Recitativo: E a tanto giunger puote (Otello, Rodrigo)
07. Terzetto: Ah vieni, nel tuo sangue (Rodrigo, Otello, Desdemona)
08. Che fiero punto è questo! (Otello, Rodrigo, Desdemona)
09. Recitativo: Desdemona! Che veggo! (Emilia, Desdemona)
10. Aria e Finale II: Che smania. Ohimè! (Desdemona, Elmiro, Coro)
Atto III:
11. Scena: Ah!... Dagli affanni oppressa (Desdemona, Emilia)
12. Canzone: Nessun maggior dolore (A Gondolier, Desdemona, Emilia)
13. Assisa a piè d'un salice (Desdemona)
14. M’ascolta... Oh Dio! (Desdemona, Emilia)
15. Eccomi giunto inosservato, e solo (Otello, Desdemona)
16. Duetto e Finale III: Non arrestare il colpo (Desdemona, Otello, Lucio, Doge, Elmiro, Rodrigo, Coro)

Лог создания рипа Диска 1

Exact Audio Copy V1.0 beta 1 from 15. November 2010
EAC extraction logfile from 6. March 2012, 17:18
Antonino Fogliani, M.Spyres, J.Pratt, F.Adami, G.Trucco / Rossini - Otello CD1
Used drive : PIONEER DVD-RW DVR-218L Adapter: 1 ID: 0
Read mode : Secure
Utilize accurate stream : Yes
Defeat audio cache : Yes
Make use of C2 pointers : No
Read offset correction : 6
Overread into Lead-In and Lead-Out : No
Fill up missing offset samples with silence : Yes
Delete leading and trailing silent blocks : No
Null samples used in CRC calculations : Yes
Used interface : Native Win32 interface for Win NT & 2000
Used output format : User Defined Encoder
Selected bitrate : 192 kBit/s
Quality : High
Add ID3 tag : No
Command line compressor : C:\Program Files\Exact Audio Copy\Flac\flac.exe
Additional command line options : -T "DATE=%y" -T "GENRE=%m" -8 -V %s
TOC of the extracted CD
Track | Start | Length | Start sector | End sector
---------------------------------------------------------
1 | 0:00.00 | 7:42.67 | 0 | 34716
2 | 7:42.67 | 4:43.12 | 34717 | 55953
3 | 12:26.04 | 2:35.01 | 55954 | 67579
4 | 15:01.05 | 6:50.09 | 67580 | 98338
5 | 21:51.14 | 2:59.57 | 98339 | 111820
6 | 24:50.71 | 5:36.42 | 111821 | 137062
7 | 30:27.38 | 6:19.12 | 137063 | 165499
8 | 36:46.50 | 4:05.32 | 165500 | 183906
9 | 40:52.07 | 5:06.09 | 183907 | 206865
10 | 45:58.16 | 5:13.46 | 206866 | 230386
11 | 51:11.62 | 4:42.28 | 230387 | 251564
12 | 55:54.15 | 5:04.31 | 251565 | 274395
13 | 60:58.46 | 5:06.29 | 274396 | 297374
14 | 66:05.00 | 2:49.00 | 297375 | 310049
Range status and errors
Selected range
Filename C:\Rossini - Otello CD1.wav
Peak level 94.7 %
Extraction speed 0.0 X
Range quality 100.0 %
Test CRC 7BD9A8AD
Copy CRC 7BD9A8AD
Copy OK
No errors occurred
AccurateRip summary
Track 1 cannot be verified as accurate (confidence 1) [2F6A87CE], AccurateRip returned [E3D724B5]
Track 2 cannot be verified as accurate (confidence 1) [7FB9A3A6], AccurateRip returned [10F07B2E]
Track 3 cannot be verified as accurate (confidence 1) [EC4916CD], AccurateRip returned [468C6883]
Track 4 cannot be verified as accurate (confidence 1) [D3687E98], AccurateRip returned [07B475E1]
Track 5 cannot be verified as accurate (confidence 1) [04D08A28], AccurateRip returned [008153C6]
Track 6 cannot be verified as accurate (confidence 1) [E2469A8D], AccurateRip returned [D3AD99FD]
Track 7 cannot be verified as accurate (confidence 1) [3D0483F4], AccurateRip returned [D48974FF]
Track 8 cannot be verified as accurate (confidence 1) [2BB7C7E8], AccurateRip returned [E996EC8B]
Track 9 cannot be verified as accurate (confidence 1) [067057C8], AccurateRip returned [0CC3B289]
Track 10 cannot be verified as accurate (confidence 1) [9BC21B6C], AccurateRip returned [AF211512]
Track 11 cannot be verified as accurate (confidence 1) [79DCA03C], AccurateRip returned [5D41EC0F]
Track 12 cannot be verified as accurate (confidence 1) [C77C2C73], AccurateRip returned [8A3F4B3E]
Track 13 cannot be verified as accurate (confidence 1) [E4B9E0C0], AccurateRip returned [FE96BF0E]
Track 14 cannot be verified as accurate (confidence 1) [FF37348C], AccurateRip returned [7AEDDBE8]
No tracks could be verified as accurate
You may have a different pressing from the one(s) in the database
End of status report
==== Log checksum D9727E93D96C74D6752BB05F4EE18C33D8D005F29AC8D197654AC5A0B7562271 ====

Лог создания рипа Диска 2

Exact Audio Copy V1.0 beta 1 from 15. November 2010
EAC extraction logfile from 6. March 2012, 19:16
Antonino Fogliani, M.Spyres, J.Pratt, F.Adami, G.Trucco / Rossini - Otello CD2
Used drive : PIONEER DVD-RW DVR-218L Adapter: 1 ID: 0
Read mode : Secure
Utilize accurate stream : Yes
Defeat audio cache : Yes
Make use of C2 pointers : No
Read offset correction : 6
Overread into Lead-In and Lead-Out : No
Fill up missing offset samples with silence : Yes
Delete leading and trailing silent blocks : No
Null samples used in CRC calculations : Yes
Used interface : Native Win32 interface for Win NT & 2000
Used output format : User Defined Encoder
Selected bitrate : 192 kBit/s
Quality : High
Add ID3 tag : No
Command line compressor : C:\Program Files\Exact Audio Copy\Flac\flac.exe
Additional command line options : -T "DATE=%y" -T "GENRE=%m" -8 -V %s
TOC of the extracted CD
Track | Start | Length | Start sector | End sector
---------------------------------------------------------
1 | 0:00.00 | 1:37.12 | 0 | 7286
2 | 1:37.12 | 6:53.28 | 7287 | 38289
3 | 8:30.40 | 2:14.10 | 38290 | 48349
4 | 10:44.50 | 5:15.03 | 48350 | 71977
5 | 15:59.53 | 6:21.15 | 71978 | 100567
6 | 22:20.68 | 0:53.01 | 100568 | 104543
7 | 23:13.69 | 4:41.02 | 104544 | 125620
8 | 27:54.71 | 7:02.16 | 125621 | 157286
9 | 34:57.12 | 1:56.70 | 157287 | 166056
10 | 36:54.07 | 8:22.50 | 166057 | 203756
11 | 45:16.57 | 3:56.08 | 203757 | 221464
12 | 49:12.65 | 4:52.61 | 221465 | 243425
13 | 54:05.51 | 5:21.22 | 243426 | 267522
14 | 59:26.73 | 5:26.71 | 267523 | 292043
15 | 64:53.69 | 6:12.07 | 292044 | 319950
16 | 71:06.01 | 8:25.74 | 319951 | 357899
Range status and errors
Selected range
Filename C:\Rossini - Otello CD2.wav
Peak level 95.0 %
Extraction speed 0.2 X
Range quality 100.0 %
Test CRC 7B7832A8
Copy CRC 7B7832A8
Copy OK
No errors occurred
AccurateRip summary
Track 1 cannot be verified as accurate (confidence 1) [6B7737B1], AccurateRip returned [C6345AF8]
Track 2 cannot be verified as accurate (confidence 1) [665B58DA], AccurateRip returned [E3A496DE]
Track 3 cannot be verified as accurate (confidence 1) [0249B31A], AccurateRip returned [F6E04AE1]
Track 4 cannot be verified as accurate (confidence 1) [836E3068], AccurateRip returned [00E12BBA]
Track 5 cannot be verified as accurate (confidence 1) [B5ECBA9C], AccurateRip returned [4875C323]
Track 6 cannot be verified as accurate (confidence 1) [34CA1C47], AccurateRip returned [AB707B47]
Track 7 cannot be verified as accurate (confidence 1) [EE2D45EC], AccurateRip returned [E2D190E7]
Track 8 cannot be verified as accurate (confidence 1) [A3D67FEA], AccurateRip returned [A6920BDC]
Track 9 cannot be verified as accurate (confidence 1) [EAE7F43D], AccurateRip returned [2892CFE2]
Track 10 cannot be verified as accurate (confidence 1) [ABDC833C], AccurateRip returned [10D5A009]
Track 11 cannot be verified as accurate (confidence 1) [A0533ECF], AccurateRip returned [4DE78141]
Track 12 cannot be verified as accurate (confidence 1) [22640180], AccurateRip returned [10B153CD]
Track 13 cannot be verified as accurate (confidence 1) [7EDE853F], AccurateRip returned [9D344DE8]
Track 14 cannot be verified as accurate (confidence 1) [5FDE7FF6], AccurateRip returned [9F1290B2]
Track 15 cannot be verified as accurate (confidence 1) [23FF4421], AccurateRip returned [E0F50E7D]
Track 16 cannot be verified as accurate (confidence 1) [01AE44C9], AccurateRip returned [DAAB8DE0]
No tracks could be verified as accurate
You may have a different pressing from the one(s) in the database
End of status report
==== Log checksum CA928E7D634290ABF24558A6A703F2E52C4DB8C77FEF411C61735F873466B460 ====

Содержание индексной карты (.CUE) Диска 1

Rossini - Otello CD1.cue
REM GENRE Opera
REM DATE 2008
REM DISCID CB10260E
REM COMMENT "ExactAudioCopy v1.0b1"
PERFORMER "Antonino Fogliani, M.Spyres, J.Pratt, F.Adami, G.Trucco"
TITLE "Rossini - Otello CD1"
FILE "Rossini - Otello CD1.flac" WAVE
TRACK 01 AUDIO
TITLE "Atto I. Sinfonia"
PERFORMER "Antonino Fogliani, M.Spyres, J.Pratt, F.Adami, G.Trucco"
INDEX 01 00:00:00
TRACK 02 AUDIO
TITLE "Introduzione: Viva Otello (Coro)"
PERFORMER "Antonino Fogliani, M.Spyres, J.Pratt, F.Adami, G.Trucco"
INDEX 01 07:42:67
TRACK 03 AUDIO
TITLE "Recitativo: Vincemmo, o prodi (Otello, Doge, Jago, Rodrigo)"
PERFORMER "Antonino Fogliani, M.Spyres, J.Pratt, F.Adami, G.Trucco"
INDEX 01 12:26:04
TRACK 04 AUDIO
TITLE "Cavatina: Ah si, per voi gia sento (Otello)"
PERFORMER "Antonino Fogliani, M.Spyres, J.Pratt, F.Adami, G.Trucco"
INDEX 01 15:01:05
TRACK 05 AUDIO
TITLE "Recitativo: Rodrigo!... Elmiro! (Elmiro, Rodrigo, Jago)"
PERFORMER "Antonino Fogliani, M.Spyres, J.Pratt, F.Adami, G.Trucco"
INDEX 01 21:51:14
TRACK 06 AUDIO
TITLE "Duetto: No, non temer, serena (Jago, Rodrigo)"
PERFORMER "Antonino Fogliani, M.Spyres, J.Pratt, F.Adami, G.Trucco"
INDEX 01 24:50:71
TRACK 07 AUDIO
TITLE "Scena: Inutile e quel pianto (Emilia, Desdemona)"
PERFORMER "Antonino Fogliani, M.Spyres, J.Pratt, F.Adami, G.Trucco"
INDEX 01 30:27:38
TRACK 08 AUDIO
TITLE "Duettino: Vorrei che il tuo pensiero (Desdemona, Emilia)"
PERFORMER "Antonino Fogliani, M.Spyres, J.Pratt, F.Adami, G.Trucco"
INDEX 01 36:46:50
TRACK 09 AUDIO
TITLE "Recitativo: Ma che miro? (Desdemona, Jago, Rodrigo, Elmiro, Emilia)"
PERFORMER "Antonino Fogliani, M.Spyres, J.Pratt, F.Adami, G.Trucco"
INDEX 01 40:52:07
TRACK 10 AUDIO
TITLE "Coro e Finale I: Santo Imen! (Coro, Desdemona, Elmiro, Rodrigo, Emilia)"
PERFORMER "Antonino Fogliani, M.Spyres, J.Pratt, F.Adami, G.Trucco"
INDEX 01 45:58:16
TRACK 11 AUDIO
TITLE "Nel cor d'un padre amante (Elmiro, Rodrigo, Desdemona)"
PERFORMER "Antonino Fogliani, M.Spyres, J.Pratt, F.Adami, G.Trucco"
INDEX 01 51:11:62
TRACK 12 AUDIO
TITLE "Ti parli d’amore: non essermi infida (Rodrigo, Elmiro, Desdemona, Otello, Luc..."
PERFORMER "Antonino Fogliani, M.Spyres, J.Pratt, F.Adami, G.Trucco"
INDEX 01 55:54:15
TRACK 13 AUDIO
TITLE "Che brami? (Elmiro, Otello, Desdemona, Rodrigo, Emilia, Lucio, Coro)"
PERFORMER "Antonino Fogliani, M.Spyres, J.Pratt, F.Adami, G.Trucco"
INDEX 01 60:58:46
TRACK 14 AUDIO
TITLE "Parti, crudel (Rodrigo, Otello, Desdemona, Elmiro, Emilia, Lucio, Coro)"
PERFORMER "Antonino Fogliani, M.Spyres, J.Pratt, F.Adami, G.Trucco"
INDEX 01 66:05:00

Содержание индексной карты (.CUE) Диска 2

Rossini - Otello CD2.cue
REM GENRE Opera
REM DATE 2008
REM DISCID 0512A410
REM COMMENT "ExactAudioCopy v1.0b1"
PERFORMER "Antonino Fogliani, M.Spyres, J.Pratt, F.Adami, G.Trucco"
TITLE "Rossini - Otello CD2"
FILE "Rossini - Otello CD2.flac" WAVE
TRACK 01 AUDIO
TITLE "Atto II. Recitativo: Lasciami... E dunque vano (Desdemona, Rodrigo)"
PERFORMER "Antonino Fogliani, M.Spyres, J.Pratt, F.Adami, G.Trucco"
INDEX 01 00:00:00
TRACK 02 AUDIO
TITLE "Aria: Che ascolto! ahime, che dici? (Rodrigo)"
PERFORMER "Antonino Fogliani, M.Spyres, J.Pratt, F.Adami, G.Trucco"
INDEX 01 01:37:12
TRACK 03 AUDIO
TITLE "Recitativo: M’abbandono, disparve (Desdemona, Emilia)"
PERFORMER "Antonino Fogliani, M.Spyres, J.Pratt, F.Adami, G.Trucco"
INDEX 01 08:30:40
TRACK 04 AUDIO
TITLE "Scena e duetto: Che feci?... ove mi trasse (Otello, Jago)"
PERFORMER "Antonino Fogliani, M.Spyres, J.Pratt, F.Adami, G.Trucco"
INDEX 01 10:44:50
TRACK 05 AUDIO
TITLE "Non m'inganno (Otello, Jago)"
PERFORMER "Antonino Fogliani, M.Spyres, J.Pratt, F.Adami, G.Trucco"
INDEX 01 15:59:53
TRACK 06 AUDIO
TITLE "Recitativo: E a tanto giunger puote (Otello, Rodrigo)"
PERFORMER "Antonino Fogliani, M.Spyres, J.Pratt, F.Adami, G.Trucco"
INDEX 01 22:20:68
TRACK 07 AUDIO
TITLE "Terzetto: Ah vieni, nel tuo sangue (Rodrigo, Otello, Desdemona)"
PERFORMER "Antonino Fogliani, M.Spyres, J.Pratt, F.Adami, G.Trucco"
INDEX 01 23:13:69
TRACK 08 AUDIO
TITLE "Che fiero punto e questo! (Otello, Rodrigo, Desdemona)"
PERFORMER "Antonino Fogliani, M.Spyres, J.Pratt, F.Adami, G.Trucco"
INDEX 01 27:54:71
TRACK 09 AUDIO
TITLE "Recitativo: Desdemona! Che veggo! (Emilia, Desdemona)"
PERFORMER "Antonino Fogliani, M.Spyres, J.Pratt, F.Adami, G.Trucco"
INDEX 01 34:57:12
TRACK 10 AUDIO
TITLE "Aria e Finale II: Che smania. Ohime! (Desdemona, Elmiro, Coro)"
PERFORMER "Antonino Fogliani, M.Spyres, J.Pratt, F.Adami, G.Trucco"
INDEX 01 36:54:07
TRACK 11 AUDIO
TITLE "Atto III. Scena: Ah!... Dagli affanni oppressa (Desdemona, Emilia)"
PERFORMER "Antonino Fogliani, M.Spyres, J.Pratt, F.Adami, G.Trucco"
INDEX 01 45:16:57
TRACK 12 AUDIO
TITLE "Canzone: Nessun maggior dolore (A Gondolier, Desdemona, Emilia)"
PERFORMER "Antonino Fogliani, M.Spyres, J.Pratt, F.Adami, G.Trucco"
INDEX 01 49:12:65
TRACK 13 AUDIO
TITLE "Assisa a pie d'un salice (Desdemona)"
PERFORMER "Antonino Fogliani, M.Spyres, J.Pratt, F.Adami, G.Trucco"
INDEX 01 54:05:51
TRACK 14 AUDIO
TITLE "M’ascolta... Oh Dio! (Desdemona, Emilia)"
PERFORMER "Antonino Fogliani, M.Spyres, J.Pratt, F.Adami, G.Trucco"
INDEX 01 59:26:73
TRACK 15 AUDIO
TITLE "Eccomi giunto inosservato, e solo (Otello, Desdemona)"
PERFORMER "Antonino Fogliani, M.Spyres, J.Pratt, F.Adami, G.Trucco"
INDEX 01 64:53:69
TRACK 16 AUDIO
TITLE "Duetto e Finale III: Non arrestare il colpo (Desdemona, Otello, Lucio, Doge, ..."
PERFORMER "Antonino Fogliani, M.Spyres, J.Pratt, F.Adami, G.Trucco"
INDEX 01 71:06:01
В СООТВЕТСТВИИ С ТРЕБОВАНИЕМ МОДЕРАТОРА ТОРРЕНТ ПЕРЕОФОРМЛЕН С ДОБАВЛЕНИЕМ CUE ФАЙЛОВ И ПЕРЕЗАЛИТ 18 ФЕВРАЛЯ 2015 г. Прошу прощения у сидеров.



Показать сообщения:    

Текущее время: 22-Янв 04:45

Часовой пояс: UTC + 3


Вы не можете начинать темы
Вы не можете отвечать на сообщения
Вы не можете редактировать свои сообщения
Вы не можете удалять свои сообщения
Вы не можете голосовать в опросах
Вы не можете прикреплять файлы к сообщениям
Вы не можете скачивать файлы