(Vocal) Placido Domingo - Encanto Del Mar: Mediterranean Songs - 2014, FLAC (tracks), lossless


 

[Цитировать]

Plácido Domingo - Encanto Del Mar: Mediterranean Songs
Жанр: Vocal
Страна-производитель диска: CША
Год издания диска: 2014
Издатель (лейбл): Sony Classical
Дата записи: 2014
Аудиокодек: FLAC
Тип рипа: tracks
Битрейт аудио: lossless
Продолжительность: 50:37
Источник: релизер
Наличие сканов в содержимом раздачи: да
Треклист:
1. Mediterraneo [03:13];
2. Estate [02:51];
3. En Mediterranee [03:19];
4. Aranjuez [03:52];
5. Anghjulina [03:39];
6. Torna A Surriento [03:37];
7. Non Potho Reposare [03:15];
8. Lamma Bada [03:27];
9. Adio Kerida [04:11];
10. To Yasemi [03:31];
11. Reginella [03:37];
12. Layla, Layla [03:08];
13. El Cant Dels Ocells [02:55];
14. Del Cabello Mas Sutil[02:06];
15. Plaisir D'amour [03:26].
Исполнители:
Plácido Domingo, soloist,
Chico Pinheiro, guitar,
Mark Feldman, violin,
Vincent Segal, cello,
Bridget Kibbey, harp,
Ira Coleman, bass.

Лог создания рипа

Exact Audio Copy V1.0 beta 3 from 29. August 2011
EAC extraction logfile from 5. January 2015, 19:53
Plácido Domingo / Encanto del Mar
Used drive : TSSTcorpCD/DVDW SH-S182M Adapter: 1 ID: 0
Read mode : Secure
Utilize accurate stream : Yes
Defeat audio cache : Yes
Make use of C2 pointers : No
Read offset correction : 6
Overread into Lead-In and Lead-Out : No
Fill up missing offset samples with silence : Yes
Delete leading and trailing silent blocks : No
Null samples used in CRC calculations : Yes
Used interface : Native Win32 interface for Win NT & 2000
Gap handling : Appended to previous track
Used output format : User Defined Encoder
Selected bitrate : 1024 kBit/s
Quality : High
Add ID3 tag : No
Command line compressor : C:\Program Files\FLAC\flac.exe
Additional command line options : -8 -V -T "ARTIST=%artist%" -T "TITLE=%title%" -T "ALBUM=%albumtitle%" -T "DATE=%year%" -T "TRACKNUMBER=%tracknr%" -T "GENRE=%genre%" -T "PERFORMER=%albuminterpret%" -T "COMPOSER=%composer%" %haslyrics%--tag-from-file=LYRICS="%lyricsfile%"%haslyrics% -T "ALBUMARTIST=%albumartist%" -T "ALBUM ARTIST=%albumartist%" -T "DISCNUMBER=%cdnumber%" -T "TOTALDISCS=%totalcds%" -T "TOTALTRACKS=%numtracks%" -T "COMMENT=%comment%" %source% -o %dest%
TOC of the extracted CD
Track | Start | Length | Start sector | End sector
---------------------------------------------------------
1 | 0:00.00 | 3:15.23 | 0 | 14647
2 | 3:15.23 | 2:52.72 | 14648 | 27619
3 | 6:08.20 | 3:22.15 | 27620 | 42784
4 | 9:30.35 | 3:53.71 | 42785 | 60330
5 | 13:24.31 | 3:41.73 | 60331 | 76978
6 | 17:06.29 | 3:40.09 | 76979 | 93487
7 | 20:46.38 | 3:17.68 | 93488 | 108330
8 | 24:04.31 | 3:29.27 | 108331 | 124032
9 | 27:33.58 | 4:13.50 | 124033 | 143057
10 | 31:47.33 | 3:33.74 | 143058 | 159106
11 | 35:21.32 | 3:39.47 | 159107 | 175578
12 | 39:01.04 | 3:09.55 | 175579 | 189808
13 | 42:10.59 | 2:58.49 | 189809 | 203207
14 | 45:09.33 | 2:09.18 | 203208 | 212900
15 | 47:18.51 | 3:27.26 | 212901 | 228451
Track 1
Filename H:\music\[CICLO SPAIN]\(([.MG] [CICLO SPAIN] Plácido Domingo - Encanto del Mar (2014) [FLAC]\01. Mediterráneo.wav
Pre-gap length 0:00:02.00
Peak level 87.2 %
Extraction speed 4.0 X
Track quality 100.0 %
Test CRC DE589A27
Copy CRC DE589A27
Track not present in AccurateRip database
Copy OK
Track 2
Filename H:\music\[CICLO SPAIN]\(([.MG] [CICLO SPAIN] Plácido Domingo - Encanto del Mar (2014) [FLAC]\02. Estate.wav
Pre-gap length 0:00:00.26
Peak level 66.0 %
Extraction speed 3.5 X
Track quality 99.9 %
Test CRC 1BECE830
Copy CRC 1BECE830
Track not present in AccurateRip database
Copy OK
Track 3
Filename H:\music\[CICLO SPAIN]\(([.MG] [CICLO SPAIN] Plácido Domingo - Encanto del Mar (2014) [FLAC]\03. En Méditerranée.wav
Pre-gap length 0:00:00.29
Peak level 88.6 %
Extraction speed 4.1 X
Track quality 99.9 %
Test CRC 678B399E
Copy CRC 678B399E
Track not present in AccurateRip database
Copy OK
Track 4
Filename H:\music\[CICLO SPAIN]\(([.MG] [CICLO SPAIN] Plácido Domingo - Encanto del Mar (2014) [FLAC]\04. Aranjuez.wav
Pre-gap length 0:00:00.21
Peak level 75.6 %
Extraction speed 4.9 X
Track quality 100.0 %
Test CRC 765945FA
Copy CRC 765945FA
Track not present in AccurateRip database
Copy OK
Track 5
Filename H:\music\[CICLO SPAIN]\(([.MG] [CICLO SPAIN] Plácido Domingo - Encanto del Mar (2014) [FLAC]\05. Anghjulina.wav
Pre-gap length 0:00:00.80
Peak level 74.4 %
Extraction speed 5.0 X
Track quality 100.0 %
Test CRC 7F06F779
Copy CRC 7F06F779
Track not present in AccurateRip database
Copy OK
Track 6
Filename H:\music\[CICLO SPAIN]\(([.MG] [CICLO SPAIN] Plácido Domingo - Encanto del Mar (2014) [FLAC]\06. Torna A Surriento.wav
Pre-gap length 0:00:00.66
Peak level 78.3 %
Extraction speed 4.6 X
Track quality 99.9 %
Test CRC 3F79CCC9
Copy CRC 3F79CCC9
Track not present in AccurateRip database
Copy OK
Track 7
Filename H:\music\[CICLO SPAIN]\(([.MG] [CICLO SPAIN] Plácido Domingo - Encanto del Mar (2014) [FLAC]\07. Non Potho Reposare.wav
Pre-gap length 0:00:01.08
Peak level 84.0 %
Extraction speed 5.6 X
Track quality 100.0 %
Test CRC 8FB8F20F
Copy CRC 8FB8F20F
Track not present in AccurateRip database
Copy OK
Track 8
Filename H:\music\[CICLO SPAIN]\(([.MG] [CICLO SPAIN] Plácido Domingo - Encanto del Mar (2014) [FLAC]\08. Lamma Bada.wav
Pre-gap length 0:00:01.18
Peak level 78.6 %
Extraction speed 5.7 X
Track quality 100.0 %
Test CRC 2B5F5522
Copy CRC 2B5F5522
Track not present in AccurateRip database
Copy OK
Track 9
Filename H:\music\[CICLO SPAIN]\(([.MG] [CICLO SPAIN] Plácido Domingo - Encanto del Mar (2014) [FLAC]\09. Adio Kerida.wav
Pre-gap length 0:00:00.33
Peak level 93.4 %
Extraction speed 6.2 X
Track quality 100.0 %
Test CRC 6FC8DF65
Copy CRC 6FC8DF65
Track not present in AccurateRip database
Copy OK
Track 10
Filename H:\music\[CICLO SPAIN]\(([.MG] [CICLO SPAIN] Plácido Domingo - Encanto del Mar (2014) [FLAC]\10. To Yasemi.wav
Pre-gap length 0:00:01.24
Peak level 93.1 %
Extraction speed 6.3 X
Track quality 100.0 %
Test CRC 12D54BB4
Copy CRC 12D54BB4
Track not present in AccurateRip database
Copy OK
Track 11
Filename H:\music\[CICLO SPAIN]\(([.MG] [CICLO SPAIN] Plácido Domingo - Encanto del Mar (2014) [FLAC]\11. Reginella.wav
Pre-gap length 0:00:00.92
Peak level 78.7 %
Extraction speed 6.6 X
Track quality 100.0 %
Test CRC B9DDE7CA
Copy CRC B9DDE7CA
Track not present in AccurateRip database
Copy OK
Track 12
Filename H:\music\[CICLO SPAIN]\(([.MG] [CICLO SPAIN] Plácido Domingo - Encanto del Mar (2014) [FLAC]\12. Layla, Layla.wav
Pre-gap length 0:00:00.92
Peak level 80.5 %
Extraction speed 6.4 X
Track quality 100.0 %
Test CRC 57245E69
Copy CRC 57245E69
Track not present in AccurateRip database
Copy OK
Track 13
Filename H:\music\[CICLO SPAIN]\(([.MG] [CICLO SPAIN] Plácido Domingo - Encanto del Mar (2014) [FLAC]\13. El Cant Dels Ocells.wav
Pre-gap length 0:00:00.17
Peak level 94.2 %
Extraction speed 6.5 X
Track quality 100.0 %
Test CRC EC4FE4B3
Copy CRC EC4FE4B3
Track not present in AccurateRip database
Copy OK
Track 14
Filename H:\music\[CICLO SPAIN]\(([.MG] [CICLO SPAIN] Plácido Domingo - Encanto del Mar (2014) [FLAC]\14. Del Cabello Más Sutil.wav
Pre-gap length 0:00:00.53
Peak level 93.6 %
Extraction speed 6.3 X
Track quality 100.0 %
Test CRC 9088ED8D
Copy CRC 9088ED8D
Track not present in AccurateRip database
Copy OK
Track 15
Filename H:\music\[CICLO SPAIN]\(([.MG] [CICLO SPAIN] Plácido Domingo - Encanto del Mar (2014) [FLAC]\15. Plaisir D'Amour.wav
Pre-gap length 0:00:01.12
Peak level 84.4 %
Extraction speed 6.8 X
Track quality 100.0 %
Test CRC 4A726CC5
Copy CRC 4A726CC5
Track not present in AccurateRip database
Copy OK
None of the tracks are present in the AccurateRip database
No errors occurred
End of status report
---- CUETools DB Plugin V2.1.3
[CTDB TOCID: Nd237FnWdu8cu829IBQNUaoDmsk-] found, Submit result: Nd237FnWdu8cu829IBQNUaoDmsk- has been confirmed
[3c5de783] (5/5) Accurately ripped
==== Log checksum 2F486FC081AC8217B277DCAD8DF5E950B31036D9ABCD0EED5EA0EF29B2D7556D ====



Показать сообщения:    

Текущее время: 09-Дек 08:53

Часовой пояс: UTC + 3


Вы не можете начинать темы
Вы не можете отвечать на сообщения
Вы не можете редактировать свои сообщения
Вы не можете удалять свои сообщения
Вы не можете голосовать в опросах
Вы не можете прикреплять файлы к сообщениям
Вы не можете скачивать файлы