(Classical / Symphony) Ludwig van Beethoven - Symphonien • Ouverturen: «Fidelio», «Die Weihe des Hauses», «Leonore» Nr. 3 (Studer, Ziegler, Seiffert, Morris, Philadelphia Orchestra, Riccardo Muti, 1985-1988) - 1998, FLAC (tracks+.cue) lossless


 

[Цитировать]

Ludwig van Beethoven | Людвиг ван Бетховен
(1770–1827)



Symphonien | Ouvertüren
Симфонии | Увертюры


Cheryl Studer sopranoDolores Ziegler mezzo-soprano
Peter Seiffert tenorJames Morris bass
Westminster Choir (Joseph Flummerfelt chorus master)
Philadelphia Orchestra
Riccardo Muti conductor


Жанр: Classical / Symphony / Orchestral
Даты и место записи: Memorial Hall, Fairmount Park, Philadelphia, 1985–1988
Формат записи: DDD, Stereo
Год издания диска: 1998
Издатель (лейбл): EMI
Номер по каталогу: 5 72923 2
Аудиокодек: FLAC
Тип рипа: tracks+.cue
Битрейт аудио: lossless
Продолжительность: 6:32:27
Наличие сканов в содержимом раздачи: только буклет
Источник: What.CD
Релизёр: wzq13

-Tracklist / ТреклистCD 1: Symphonien Nrn. 1, 5
Symphonie Nr. 5 c-moll, Op. 67 - 32:52
I. Allegro con brio - 7:18
  • II. Andante con moto - 9:54
  • III. Allegro - 5:09
  • IV. Allegro. — Presto - 10:32
    Recorded: Memorial Hall, Fairmount Park, Philadelphia, X & XI.1985
    Symphonie Nr. 1 C-dur, Op. 21 - 25:52
    I. Adagio molto. — Allegro con brio - 8:46
  • II. Andante cantabile con moto - 8:12
  • III. Menuetto: Allegro molto e vivace - 3:31
  • IV. Adagio. — Allegro molto e vivace - 5:24
    Recorded: Memorial Hall, Fairmount Park, Philadelphia, X & XI.1985
    CD 2: Symphonien Nrn. 2, 4
    Symphonie Nr. 2 D-dur, Op. 36 - 34:10
    I. Adagio molto. — Allegro con brio - 12:33
  • II. Larghetto - 11:40
  • III. Scherzo: Allegro - 3:39
  • IV. Allegro molto - 6:18
    Recorded: Memorial Hall, Fairmount Park, Philadelphia, I.1987
    Symphonie Nr. 4 B-dur, Op. 60 - 33:25
    I. Adagio. — Allegro vivace - 11:08
  • II. Adagio - 10:02
  • III. Allegro vivace. — Un poco meno Allegro - 5:27
  • IV. Allegro ma non troppo - 6:48
    Recorded: Memorial Hall, Fairmount Park, Philadelphia, X & XI.1985
    CD 3: Symphonie Nr. 3 • «Fidelio» • «Die Weihe des Hauses»
    Symphonie Nr. 3 Es-dur «Eroica», Op. 55 - 52:00
    I. Allegro con brio - 17:43
  • II. Marcia funebre: Adagio assai - 16:18
  • III. Scherzo: Allegro vivace - 6:00
  • IV. Finale: Allegro molto - 11:59
    Recorded: Memorial Hall, Fairmount Park, Philadelphia, I.1987
    Ouvertüre «Fidelio», Op. 72c - 6:52
  • Ouvertüre «Die Weihe des Hauses», Op. 124 - 10:07
    Recorded: Memorial Hall, Fairmount Park, Philadelphia, X & XI.1985
    CD 4: Symphonie Nr. 6 • «Leonore» Nr. 3
    Symphonie Nr. 6 F-dur «Pastorale», Op. 68 - 45:40
    I. Erwachen heiterer Empfindungen bei der Ankunft auf dem Lande - 12:38
  • II. Szene am Bach - 12:40
  • III. Lustiges Zusammensein der Landleute - 5:53
  • IV. Gewitter. Sturm - 3:59
  • V. Hirtengesang. Frohe und dankbare Gefühle nach dem Sturm - 10:30
    Recorded: Memorial Hall, Fairmount Park, Philadelphia, IX.1987
    Ouvertüre «Leonore» Nr. 3, Op. 72b - 13:56
    Recorded: Memorial Hall, Fairmount Park, Philadelphia, II.1988
    CD 5: Symphonien Nrn. 7, 8
    Symphonie Nr. 7 A-dur, Op. 92 - 40:49
    I. Poco sostenuto. — Vivace - 13:22
  • II. Allegretto - 9:02
  • III. Presto - 9:42
  • IV. Allegro con brio - 8:44
    Recorded: Memorial Hall, Fairmount Park, Philadelphia, II.1988
    Symphonie Nr. 8 F-dur, Op. 93 - 24:51
    I. Allegro vivace e con brio - 8:59
  • II. Allegretto scherzando - 3:40
  • III. Tempo di Menuetto - 4:54
  • IV. Allegro vivace - 7:18
    Recorded: Memorial Hall, Fairmount Park, Philadelphia, I.1987
    CD 6: Symphonie Nr. 9
    Symphonie Nr. 9 d-moll, Op. 125 - 1:11:53
    I. Allegro ma non troppo, un poco maestoso - 16:29
  • II. Molto vivace. — Presto - 14:47
  • III. Adagio molto e cantabile. — Andante moderato - 16:05
  • IV. Finale: Hymne an die Freude - 24:32
    Recorded: Memorial Hall, Fairmount Park, Philadelphia, IV.1988-

    EAC logs / Отчёты EACCD 1: Symphonien Nrn. 1, 5

    Exact Audio Copy V1.0 beta 3 from 29. August 2011
    EAC extraction logfile from 12. March 2013, 22:48
    Ludwig van Beethoven / Complete Symphonies
    Used drive : PHILIPS SPD2514T Adapter: 3 ID: 0
    Read mode : Secure
    Utilize accurate stream : Yes
    Defeat audio cache : Yes
    Make use of C2 pointers : No
    Read offset correction : 6
    Overread into Lead-In and Lead-Out : No
    Fill up missing offset samples with silence : Yes
    Delete leading and trailing silent blocks : No
    Null samples used in CRC calculations : Yes
    Used interface : Native Win32 interface for Win NT & 2000
    Gap handling : Appended to previous track
    Used output format : User Defined Encoder
    Selected bitrate : 1024 kBit/s
    Quality : High
    Add ID3 tag : No
    Command line compressor : C:\Program Files (x86)\Exact Audio Copy\Flac\flac.exe
    Additional command line options : -8 -V -T "ARTIST=%artist%" -T "TITLE=%title%" -T "ALBUM=%albumtitle%" -T "DATE=%year%" -T "TRACKNUMBER=%tracknr%" -T "GENRE=%genre%" -T "PERFORMER=%albuminterpret%" -T "COMPOSER=%composer%" %haslyrics%--tag-from-file=LYRICS="%lyricsfile%"%haslyrics% -T "ALBUMARTIST=%albumartist%" -T "DISCNUMBER=%cdnumber%" -T "TOTALDISCS=%totalcds%" -T "TOTALTRACKS=%numtracks%" -T "COMMENT=%comment%" %source% -o %dest%
    TOC of the extracted CD
    Track | Start | Length | Start sector | End sector
    ---------------------------------------------------------
    1 | 0:00.33 | 7:17.60 | 33 | 32867
    2 | 7:18.18 | 9:53.70 | 32868 | 77412
    3 | 17:12.13 | 5:08.40 | 77413 | 100552
    4 | 22:20.53 | 10:31.70 | 100553 | 147947
    5 | 32:52.48 | 8:45.40 | 147948 | 187362
    6 | 41:38.13 | 8:11.60 | 187363 | 224247
    7 | 49:49.73 | 3:30.40 | 224248 | 240037
    8 | 53:20.38 | 5:24.30 | 240038 | 264367
    Track 1
    Filename C:\EAC Rips\Beethoven - Complete Sym - Muti\CD 1\01 - Symphony No. 5 in C minor, Op. 67- I. Allegro con brio.wav
    Pre-gap length 0:00:02.44
    Peak level 70.5 %
    Extraction speed 4.8 X
    Track quality 100.0 %
    Test CRC 7D575C8E
    Copy CRC 7D575C8E
    Accurately ripped (confidence 9) [00DBE1BD] (AR v1)
    Copy OK
    Track 2
    Filename C:\EAC Rips\Beethoven - Complete Sym - Muti\CD 1\02 - Symphony No. 5 in C minor, Op. 67- II. Andante con moto.wav
    Pre-gap length 0:00:00.04
    Peak level 59.0 %
    Extraction speed 5.4 X
    Track quality 99.9 %
    Test CRC D1A54F1A
    Copy CRC D1A54F1A
    Accurately ripped (confidence 10) [830DA9F9] (AR v1)
    Copy OK
    Track 3
    Filename C:\EAC Rips\Beethoven - Complete Sym - Muti\CD 1\03 - Symphony No. 5 in C minor, Op. 67- III. Allegro.wav
    Pre-gap length 0:00:00.04
    Peak level 59.1 %
    Extraction speed 6.1 X
    Track quality 100.0 %
    Test CRC 7F3B07CD
    Copy CRC 7F3B07CD
    Accurately ripped (confidence 10) [1BD94DC2] (AR v1)
    Copy OK
    Track 4
    Filename C:\EAC Rips\Beethoven - Complete Sym - Muti\CD 1\04 - Symphony No. 5 in C minor, Op. 67- IV. Allegro - Presto.wav
    Pre-gap length 0:00:00.04
    Peak level 83.8 %
    Extraction speed 7.3 X
    Track quality 100.0 %
    Test CRC D31C0977
    Copy CRC D31C0977
    Accurately ripped (confidence 10) [87F1AA58] (AR v1)
    Copy OK
    Track 5
    Filename C:\EAC Rips\Beethoven - Complete Sym - Muti\CD 1\05 - Symphony No. 1 in C major, Op. 21- I. Adagio molto - Allegro con brio.wav
    Pre-gap length 0:00:07.84
    Peak level 50.0 %
    Extraction speed 7.1 X
    Track quality 99.9 %
    Test CRC E14FA629
    Copy CRC E14FA629
    Accurately ripped (confidence 9) [AD2E9C78] (AR v1)
    Copy OK
    Track 6
    Filename C:\EAC Rips\Beethoven - Complete Sym - Muti\CD 1\06 - Symphony No. 1 in C major, Op. 21- II. Andante cantabile con moto.wav
    Pre-gap length 0:00:00.04
    Peak level 39.9 %
    Extraction speed 8.5 X
    Track quality 100.0 %
    Test CRC E6EAE3B5
    Copy CRC E6EAE3B5
    Accurately ripped (confidence 10) [78D38FC1] (AR v1)
    Copy OK
    Track 7
    Filename C:\EAC Rips\Beethoven - Complete Sym - Muti\CD 1\07 - Symphony No. 1 in C major, Op. 21- III. Menuetto (Allegro molto e vivace) & Trio.wav
    Pre-gap length 0:00:00.04
    Peak level 65.0 %
    Extraction speed 8.2 X
    Track quality 100.0 %
    Test CRC B6A5F3D0
    Copy CRC B6A5F3D0
    Accurately ripped (confidence 10) [8DE7F488] (AR v1)
    Copy OK
    Track 8
    Filename C:\EAC Rips\Beethoven - Complete Sym - Muti\CD 1\08 - Symphony No. 1 in C major, Op. 21- IV. Finale Adagio Allegro molto e vivace.wav
    Pre-gap length 0:00:00.04
    Peak level 56.3 %
    Extraction speed 7.4 X
    Track quality 99.9 %
    Test CRC 71BF91AE
    Copy CRC 71BF91AE
    Accurately ripped (confidence 10) [CDD2F347] (AR v1)
    Copy OK
    All tracks accurately ripped
    No errors occurred
    End of status report
    ==== Log checksum F70DCD85A8819F57D5335A22B6BEA4995733D319865BF20644BDADFCB49F0C12 ====

    CD 2: Symphonien Nrn. 2, 4

    Exact Audio Copy V1.0 beta 3 from 29. August 2011
    EAC extraction logfile from 13. March 2013, 17:44
    Ludwig van Beethoven / Beethoven - Symphony 2 & 4
    Used drive : PHILIPS SPD2514T Adapter: 3 ID: 0
    Read mode : Secure
    Utilize accurate stream : Yes
    Defeat audio cache : Yes
    Make use of C2 pointers : No
    Read offset correction : 6
    Overread into Lead-In and Lead-Out : No
    Fill up missing offset samples with silence : Yes
    Delete leading and trailing silent blocks : No
    Null samples used in CRC calculations : Yes
    Used interface : Native Win32 interface for Win NT & 2000
    Gap handling : Appended to previous track
    Used output format : User Defined Encoder
    Selected bitrate : 1024 kBit/s
    Quality : High
    Add ID3 tag : No
    Command line compressor : C:\Program Files (x86)\Exact Audio Copy\Flac\flac.exe
    Additional command line options : -8 -V -T "ARTIST=%artist%" -T "TITLE=%title%" -T "ALBUM=%albumtitle%" -T "DATE=%year%" -T "TRACKNUMBER=%tracknr%" -T "GENRE=%genre%" -T "PERFORMER=%albuminterpret%" -T "COMPOSER=%composer%" %haslyrics%--tag-from-file=LYRICS="%lyricsfile%"%haslyrics% -T "ALBUMARTIST=%albumartist%" -T "DISCNUMBER=%cdnumber%" -T "TOTALDISCS=%totalcds%" -T "TOTALTRACKS=%numtracks%" -T "COMMENT=%comment%" %source% -o %dest%
    TOC of the extracted CD
    Track | Start | Length | Start sector | End sector
    ---------------------------------------------------------
    1 | 0:00.33 | 12:32.47 | 33 | 56479
    2 | 12:33.05 | 11:39.70 | 56480 | 108974
    3 | 24:13.00 | 3:39.13 | 108975 | 125412
    4 | 27:52.13 | 6:18.12 | 125413 | 153774
    5 | 34:10.25 | 11:08.03 | 153775 | 203877
    6 | 45:18.28 | 10:01.72 | 203878 | 249024
    7 | 55:20.25 | 5:26.68 | 249025 | 273542
    8 | 60:47.18 | 6:48.07 | 273543 | 304149
    Track 1
    Filename C:\EAC Rips\Beethoven - Complete Sym - Muti\CD 2\001 - Symphony No.2 in D major Op.36 - I. Adagio molto - Allegro con brio.wav
    Pre-gap length 0:00:02.44
    Peak level 93.9 %
    Extraction speed 5.1 X
    Track quality 99.9 %
    Test CRC E00A6B3F
    Copy CRC E00A6B3F
    Accurately ripped (confidence 8) [C498E6E9] (AR v1)
    Copy OK
    Track 2
    Filename C:\EAC Rips\Beethoven - Complete Sym - Muti\CD 2\002 - Symphony No.2 in D major Op.36 - II. Larghetto.wav
    Pre-gap length 0:00:00.02
    Peak level 67.8 %
    Extraction speed 6.3 X
    Track quality 100.0 %
    Test CRC 762DEE7C
    Copy CRC 762DEE7C
    Accurately ripped (confidence 8) [CB7BF23A] (AR v1)
    Copy OK
    Track 3
    Filename C:\EAC Rips\Beethoven - Complete Sym - Muti\CD 2\003 - Symphony No.2 in D major Op.36 - III. Scherzo (Allegro) & Trio.wav
    Pre-gap length 0:00:00.02
    Peak level 81.4 %
    Extraction speed 6.1 X
    Track quality 100.0 %
    Test CRC 212DBC1B
    Copy CRC 212DBC1B
    Accurately ripped (confidence 8) [6C9F7999] (AR v1)
    Copy OK
    Track 4
    Filename C:\EAC Rips\Beethoven - Complete Sym - Muti\CD 2\004 - Symphony No.2 in D major Op.36 - IV. Allegro molto.wav
    Pre-gap length 0:00:00.04
    Peak level 85.9 %
    Extraction speed 6.6 X
    Track quality 99.9 %
    Test CRC B79249FE
    Copy CRC B79249FE
    Accurately ripped (confidence 8) [8AC5CF3E] (AR v1)
    Copy OK
    Track 5
    Filename C:\EAC Rips\Beethoven - Complete Sym - Muti\CD 2\005 - Symphony No.4 in B flat major Op.60 - I. Adagio - Allegro vivace.wav
    Pre-gap length 0:00:07.00
    Peak level 75.6 %
    Extraction speed 8.6 X
    Track quality 100.0 %
    Test CRC 6EF85B35
    Copy CRC 6EF85B35
    Accurately ripped (confidence 7) [930FC958] (AR v1)
    Copy OK
    Track 6
    Filename C:\EAC Rips\Beethoven - Complete Sym - Muti\CD 2\006 - Symphony No.4 in B flat major Op.60 - II. Adagio.wav
    Pre-gap length 0:00:00.04
    Peak level 59.2 %
    Extraction speed 9.3 X
    Track quality 100.0 %
    Test CRC 94083835
    Copy CRC 94083835
    Accurately ripped (confidence 8) [B69C7869] (AR v1)
    Copy OK
    Track 7
    Filename C:\EAC Rips\Beethoven - Complete Sym - Muti\CD 2\007 - Symphony No.4 in B flat major Op.60 - III. Menutto( Allegro vivace) & Trio( Un poco meno allegro).wav
    Pre-gap length 0:00:00.02
    Peak level 62.9 %
    Extraction speed 9.2 X
    Track quality 100.0 %
    Test CRC C3A37FB0
    Copy CRC C3A37FB0
    Accurately ripped (confidence 8) [A29EF1AE] (AR v1)
    Copy OK
    Track 8
    Filename C:\EAC Rips\Beethoven - Complete Sym - Muti\CD 2\008 - Symphony No.4 in B flat major Op.60 - IV. Allegro ma non troppo.wav
    Pre-gap length 0:00:00.04
    Peak level 56.3 %
    Extraction speed 9.8 X
    Track quality 100.0 %
    Test CRC 117B8D8B
    Copy CRC 117B8D8B
    Accurately ripped (confidence 8) [D3F1B165] (AR v1)
    Copy OK
    All tracks accurately ripped
    No errors occurred
    End of status report
    ==== Log checksum 41BFEA678CAB32380E37E2A2C6157B7EB10E09724BA62EB428ECA9586C1E730A ====

    CD 3: Symphonie Nr. 3 • «Fidelio» • «Die Weihe des Hauses»

    Exact Audio Copy V1.0 beta 3 from 29. August 2011
    EAC extraction logfile from 12. March 2013, 23:39
    Ludwig van Beethoven / Complete Symphonies
    Used drive : PHILIPS SPD2514T Adapter: 3 ID: 0
    Read mode : Secure
    Utilize accurate stream : Yes
    Defeat audio cache : Yes
    Make use of C2 pointers : No
    Read offset correction : 6
    Overread into Lead-In and Lead-Out : No
    Fill up missing offset samples with silence : Yes
    Delete leading and trailing silent blocks : No
    Null samples used in CRC calculations : Yes
    Used interface : Native Win32 interface for Win NT & 2000
    Gap handling : Appended to previous track
    Used output format : User Defined Encoder
    Selected bitrate : 1024 kBit/s
    Quality : High
    Add ID3 tag : No
    Command line compressor : C:\Program Files (x86)\Exact Audio Copy\Flac\flac.exe
    Additional command line options : -8 -V -T "ARTIST=%artist%" -T "TITLE=%title%" -T "ALBUM=%albumtitle%" -T "DATE=%year%" -T "TRACKNUMBER=%tracknr%" -T "GENRE=%genre%" -T "PERFORMER=%albuminterpret%" -T "COMPOSER=%composer%" %haslyrics%--tag-from-file=LYRICS="%lyricsfile%"%haslyrics% -T "ALBUMARTIST=%albumartist%" -T "DISCNUMBER=%cdnumber%" -T "TOTALDISCS=%totalcds%" -T "TOTALTRACKS=%numtracks%" -T "COMMENT=%comment%" %source% -o %dest%
    TOC of the extracted CD
    Track | Start | Length | Start sector | End sector
    ---------------------------------------------------------
    1 | 0:00.33 | 17:43.00 | 33 | 79757
    2 | 17:43.33 | 16:18.25 | 79758 | 153132
    3 | 34:01.58 | 5:59.67 | 153133 | 180124
    4 | 40:01.50 | 11:58.58 | 180125 | 234032
    5 | 52:00.33 | 6:52.12 | 234033 | 264944
    6 | 58:52.45 | 10:06.53 | 264945 | 310447
    Track 1
    Filename C:\EAC Rips\Beethoven - Complete Sym - Muti\CD 3\01 - Symphony No. 3 in E-flat, Op.55 (''Eroica'')- I. Allegro con brio.wav
    Pre-gap length 0:00:02.44
    Peak level 73.3 %
    Extraction speed 5.9 X
    Track quality 100.0 %
    Test CRC 80290FEC
    Copy CRC 80290FEC
    Accurately ripped (confidence 8) [ACA64A1A] (AR v1)
    Copy OK
    Track 2
    Filename C:\EAC Rips\Beethoven - Complete Sym - Muti\CD 3\02 - Symphony No. 3 in E-flat, Op.55 (''Eroica'')- II. Marcia funebre (Adagio assai).wav
    Pre-gap length 0:00:00.04
    Peak level 64.3 %
    Extraction speed 7.6 X
    Track quality 100.0 %
    Test CRC 94CB2F5F
    Copy CRC 94CB2F5F
    Accurately ripped (confidence 8) [1A04EAA9] (AR v1)
    Copy OK
    Track 3
    Filename C:\EAC Rips\Beethoven - Complete Sym - Muti\CD 3\03 - Symphony No. 3 in E-flat, Op.55 (''Eroica'')- III. Scherzo (Allegro vivace) & Trio.wav
    Pre-gap length 0:00:00.04
    Peak level 73.6 %
    Extraction speed 6.8 X
    Track quality 99.9 %
    Test CRC 9B8D4187
    Copy CRC 9B8D4187
    Accurately ripped (confidence 8) [F7C79A46] (AR v1)
    Copy OK
    Track 4
    Filename C:\EAC Rips\Beethoven - Complete Sym - Muti\CD 3\04 - Symphony No. 3 in E-flat, Op.55 (''Eroica'')- IV. Finale (Allegro molto - Poco andante - Presto).wav
    Pre-gap length 0:00:00.02
    Peak level 80.3 %
    Extraction speed 8.3 X
    Track quality 99.9 %
    Test CRC EB1100FF
    Copy CRC EB1100FF
    Accurately ripped (confidence 8) [C6819189] (AR v1)
    Copy OK
    Track 5
    Filename C:\EAC Rips\Beethoven - Complete Sym - Muti\CD 3\05 - Overture- Fidelio, Op. 72b.wav
    Pre-gap length 0:00:07.17
    Peak level 94.4 %
    Extraction speed 9.4 X
    Track quality 100.0 %
    Test CRC 03CD002D
    Copy CRC 03CD002D
    Accurately ripped (confidence 8) [3732545C] (AR v1)
    Copy OK
    Track 6
    Filename C:\EAC Rips\Beethoven - Complete Sym - Muti\CD 3\06 - Overture- The Consecration of the House, Op.124.wav
    Pre-gap length 0:00:05.89
    Peak level 49.9 %
    Extraction speed 10.1 X
    Track quality 100.0 %
    Test CRC 46692FE4
    Copy CRC 46692FE4
    Accurately ripped (confidence 7) [A04FD59D] (AR v1)
    Copy OK
    All tracks accurately ripped
    No errors occurred
    End of status report
    ==== Log checksum 32A4B986088A10F2FF4437A14FCFAB4A7CEF4C790B239128047C15B1D928D465 ====

    CD 4: Symphonie Nr. 6 • «Leonore» Nr. 3

    Exact Audio Copy V1.0 beta 3 from 29. August 2011
    EAC extraction logfile from 13. March 2013, 0:06
    Ludwig van Beethoven / Symphony No.6 'Pastoral' - Leonore Overture No.3
    Used drive : PHILIPS SPD2514T Adapter: 3 ID: 0
    Read mode : Secure
    Utilize accurate stream : Yes
    Defeat audio cache : Yes
    Make use of C2 pointers : No
    Read offset correction : 6
    Overread into Lead-In and Lead-Out : No
    Fill up missing offset samples with silence : Yes
    Delete leading and trailing silent blocks : No
    Null samples used in CRC calculations : Yes
    Used interface : Native Win32 interface for Win NT & 2000
    Gap handling : Appended to previous track
    Used output format : User Defined Encoder
    Selected bitrate : 1024 kBit/s
    Quality : High
    Add ID3 tag : No
    Command line compressor : C:\Program Files (x86)\Exact Audio Copy\Flac\flac.exe
    Additional command line options : -8 -V -T "ARTIST=%artist%" -T "TITLE=%title%" -T "ALBUM=%albumtitle%" -T "DATE=%year%" -T "TRACKNUMBER=%tracknr%" -T "GENRE=%genre%" -T "PERFORMER=%albuminterpret%" -T "COMPOSER=%composer%" %haslyrics%--tag-from-file=LYRICS="%lyricsfile%"%haslyrics% -T "ALBUMARTIST=%albumartist%" -T "DISCNUMBER=%cdnumber%" -T "TOTALDISCS=%totalcds%" -T "TOTALTRACKS=%numtracks%" -T "COMMENT=%comment%" %source% -o %dest%
    TOC of the extracted CD
    Track | Start | Length | Start sector | End sector
    ---------------------------------------------------------
    1 | 0:00.33 | 12:38.22 | 33 | 56904
    2 | 12:38.55 | 12:39.58 | 56905 | 113887
    3 | 25:18.38 | 5:53.00 | 113888 | 140362
    4 | 31:11.38 | 3:59.17 | 140363 | 158304
    5 | 35:10.55 | 10:29.70 | 158305 | 205549
    6 | 45:40.50 | 13:56.28 | 205550 | 268277
    Track 1
    Filename C:\EAC Rips\Beethoven - Complete Sym - Muti\CD 4\01 - Symphony No.6 in F Op.68 'Pastoral' - I Allegro ma non troppo.wav
    Pre-gap length 0:00:02.44
    Peak level 65.2 %
    Extraction speed 4.9 X
    Track quality 99.9 %
    Test CRC 76E978B2
    Copy CRC 76E978B2
    Accurately ripped (confidence 8) [C8B1D757] (AR v1)
    Copy OK
    Track 2
    Filename C:\EAC Rips\Beethoven - Complete Sym - Muti\CD 4\02 - Symphony No.6 in F Op.68 'Pastoral' - II Andante molto mosso.wav
    Peak level 31.9 %
    Extraction speed 6.7 X
    Track quality 100.0 %
    Test CRC 67ED8662
    Copy CRC 67ED8662
    Accurately ripped (confidence 8) [3AB37F82] (AR v1)
    Copy OK
    Track 3
    Filename C:\EAC Rips\Beethoven - Complete Sym - Muti\CD 4\03 - Symphony No.6 in F Op.68 'Pastoral' - III Allegro.wav
    Pre-gap length 0:00:00.02
    Peak level 69.4 %
    Extraction speed 7.1 X
    Track quality 100.0 %
    Test CRC AC5AD170
    Copy CRC AC5AD170
    Accurately ripped (confidence 8) [CC86B800] (AR v1)
    Copy OK
    Track 4
    Filename C:\EAC Rips\Beethoven - Complete Sym - Muti\CD 4\04 - Symphony No.6 in F Op.68 'Pastoral' - IV Allegro.wav
    Pre-gap length 0:00:00.02
    Peak level 98.8 %
    Extraction speed 7.2 X
    Track quality 100.0 %
    Test CRC A94723D4
    Copy CRC A94723D4
    Accurately ripped (confidence 8) [C30BB3C6] (AR v1)
    Copy OK
    Track 5
    Filename C:\EAC Rips\Beethoven - Complete Sym - Muti\CD 4\05 - Symphony No.6 in F Op.68 'Pastoral' - V Allegretto.wav
    Peak level 52.0 %
    Extraction speed 8.4 X
    Track quality 100.0 %
    Test CRC 21364037
    Copy CRC 21364037
    Accurately ripped (confidence 8) [0721ABB3] (AR v1)
    Copy OK
    Track 6
    Filename C:\EAC Rips\Beethoven - Complete Sym - Muti\CD 4\06 - Overture- Leonore No.3 Op.72b.wav
    Pre-gap length 0:00:08.18
    Peak level 97.2 %
    Extraction speed 5.6 X
    Track quality 100.0 %
    Test CRC 7DFF3F19
    Copy CRC 7DFF3F19
    Accurately ripped (confidence 8) [CE2A5748] (AR v1)
    Copy OK
    All tracks accurately ripped
    No errors occurred
    End of status report
    ==== Log checksum 8DCB6F3BD071EECA9C80C60F71900B7F95E99BAB85FC2C8BA94ECEC7A6E1AE9E ====

    CD 5: Symphonien Nrn. 7, 8

    Exact Audio Copy V1.0 beta 3 from 29. August 2011
    EAC extraction logfile from 13. March 2013, 17:19
    Ludwig van Beethoven / Symphony 7 & 8
    Used drive : PHILIPS SPD2514T Adapter: 3 ID: 0
    Read mode : Secure
    Utilize accurate stream : Yes
    Defeat audio cache : Yes
    Make use of C2 pointers : No
    Read offset correction : 6
    Overread into Lead-In and Lead-Out : No
    Fill up missing offset samples with silence : Yes
    Delete leading and trailing silent blocks : No
    Null samples used in CRC calculations : Yes
    Used interface : Native Win32 interface for Win NT & 2000
    Gap handling : Appended to previous track
    Used output format : User Defined Encoder
    Selected bitrate : 1024 kBit/s
    Quality : High
    Add ID3 tag : No
    Command line compressor : C:\Program Files (x86)\Exact Audio Copy\Flac\flac.exe
    Additional command line options : -8 -V -T "ARTIST=%artist%" -T "TITLE=%title%" -T "ALBUM=%albumtitle%" -T "DATE=%year%" -T "TRACKNUMBER=%tracknr%" -T "GENRE=%genre%" -T "PERFORMER=%albuminterpret%" -T "COMPOSER=%composer%" %haslyrics%--tag-from-file=LYRICS="%lyricsfile%"%haslyrics% -T "ALBUMARTIST=%albumartist%" -T "DISCNUMBER=%cdnumber%" -T "TOTALDISCS=%totalcds%" -T "TOTALTRACKS=%numtracks%" -T "COMMENT=%comment%" %source% -o %dest%
    TOC of the extracted CD
    Track | Start | Length | Start sector | End sector
    ---------------------------------------------------------
    1 | 0:00.33 | 13:21.50 | 33 | 60157
    2 | 13:22.08 | 9:01.62 | 60158 | 100794
    3 | 22:23.70 | 9:41.48 | 100795 | 144417
    4 | 32:05.43 | 8:43.57 | 144418 | 183699
    5 | 40:49.25 | 8:59.00 | 183700 | 224124
    6 | 49:48.25 | 3:39.65 | 224125 | 240614
    7 | 53:28.15 | 4:53.70 | 240615 | 262659
    8 | 58:22.10 | 7:18.18 | 262660 | 295527
    Track 1
    Filename C:\EAC Rips\Beethoven - Complete Sym - Muti\CD 5\01 - Symphony No.7 in A major Op.92 01. Poco sostenuto - Vivace.wav
    Pre-gap length 0:00:02.44
    Peak level 97.7 %
    Extraction speed 5.7 X
    Track quality 100.0 %
    Test CRC 3AC3C0CA
    Copy CRC 3AC3C0CA
    Accurately ripped (confidence 8) [CBE55AE8] (AR v1)
    Copy OK
    Track 2
    Filename C:\EAC Rips\Beethoven - Complete Sym - Muti\CD 5\02 - Symphony No.7 in A major Op.92 02. Allegretto.wav
    Pre-gap length 0:00:03.84
    Peak level 59.5 %
    Extraction speed 6.0 X
    Track quality 99.9 %
    Test CRC 539A72AD
    Copy CRC 539A72AD
    Accurately ripped (confidence 8) [E40131A3] (AR v1)
    Copy OK
    Track 3
    Filename C:\EAC Rips\Beethoven - Complete Sym - Muti\CD 5\03 - Symphony No.7 in A major Op.92 03. Presto - Assai meno presto.wav
    Pre-gap length 0:00:01.29
    Peak level 78.3 %
    Extraction speed 6.8 X
    Track quality 99.9 %
    Test CRC 2D6C05E6
    Copy CRC 2D6C05E6
    Accurately ripped (confidence 8) [BED0B0FE] (AR v1)
    Copy OK
    Track 4
    Filename C:\EAC Rips\Beethoven - Complete Sym - Muti\CD 5\04 - Symphony No.7 in A major Op.92 04. Allegro con brio.wav
    Pre-gap length 0:00:02.86
    Peak level 91.4 %
    Extraction speed 8.2 X
    Track quality 100.0 %
    Test CRC DF52C1D8
    Copy CRC DF52C1D8
    Accurately ripped (confidence 8) [42D958FA] (AR v1)
    Copy OK
    Track 5
    Filename C:\EAC Rips\Beethoven - Complete Sym - Muti\CD 5\05 - Symphony No.8 in F major Op.93 01. Allegro vivace e con brio.wav
    Pre-gap length 0:00:08.73
    Peak level 87.4 %
    Extraction speed 8.8 X
    Track quality 100.0 %
    Test CRC 839ECADE
    Copy CRC 839ECADE
    Accurately ripped (confidence 8) [7E6F08DF] (AR v1)
    Copy OK
    Track 6
    Filename C:\EAC Rips\Beethoven - Complete Sym - Muti\CD 5\06 - Symphony No.8 in F major Op.93 02. Allegretto scherzando.wav
    Pre-gap length 0:00:00.02
    Peak level 45.6 %
    Extraction speed 8.4 X
    Track quality 100.0 %
    Test CRC 37F2AC36
    Copy CRC 37F2AC36
    Accurately ripped (confidence 8) [6BE062A3] (AR v1)
    Copy OK
    Track 7
    Filename C:\EAC Rips\Beethoven - Complete Sym - Muti\CD 5\07 - Symphony No.8 in F major Op.93 03. Tempo di Menuetto.wav
    Pre-gap length 0:00:00.02
    Peak level 55.3 %
    Extraction speed 8.9 X
    Track quality 100.0 %
    Test CRC 0CEE3806
    Copy CRC 0CEE3806
    Accurately ripped (confidence 8) [44804809] (AR v1)
    Copy OK
    Track 8
    Filename C:\EAC Rips\Beethoven - Complete Sym - Muti\CD 5\08 - Symphony No.8 in F major Op.93 04. Allegro vivace.wav
    Pre-gap length 0:00:00.02
    Peak level 96.6 %
    Extraction speed 8.4 X
    Track quality 99.9 %
    Test CRC 8C1C9ED8
    Copy CRC 8C1C9ED8
    Accurately ripped (confidence 8) [DCFD345D] (AR v1)
    Copy OK
    All tracks accurately ripped
    No errors occurred
    End of status report
    ==== Log checksum 965C651E36623AF19CFEF6B5067E3CD398A0C2182C8518B43E3A7447F17A166E ====

    CD 6: Symphonie Nr. 9

    Exact Audio Copy V1.0 beta 3 from 29. August 2011
    EAC extraction logfile from 12. March 2013, 22:20
    Beethoven, Ludwig van / Symphony No.9 'Choral'
    Used drive : PHILIPS SPD2514T Adapter: 3 ID: 0
    Read mode : Secure
    Utilize accurate stream : Yes
    Defeat audio cache : Yes
    Make use of C2 pointers : No
    Read offset correction : 6
    Overread into Lead-In and Lead-Out : No
    Fill up missing offset samples with silence : Yes
    Delete leading and trailing silent blocks : No
    Null samples used in CRC calculations : Yes
    Used interface : Native Win32 interface for Win NT & 2000
    Gap handling : Appended to previous track
    Used output format : User Defined Encoder
    Selected bitrate : 1024 kBit/s
    Quality : High
    Add ID3 tag : No
    Command line compressor : C:\Program Files (x86)\Exact Audio Copy\Flac\flac.exe
    Additional command line options : -8 -V -T "ARTIST=%artist%" -T "TITLE=%title%" -T "ALBUM=%albumtitle%" -T "DATE=%year%" -T "TRACKNUMBER=%tracknr%" -T "GENRE=%genre%" -T "PERFORMER=%albuminterpret%" -T "COMPOSER=%composer%" %haslyrics%--tag-from-file=LYRICS="%lyricsfile%"%haslyrics% -T "ALBUMARTIST=%albumartist%" -T "DISCNUMBER=%cdnumber%" -T "TOTALDISCS=%totalcds%" -T "TOTALTRACKS=%numtracks%" -T "COMMENT=%comment%" %source% -o %dest%
    TOC of the extracted CD
    Track | Start | Length | Start sector | End sector
    ---------------------------------------------------------
    1 | 0:00.33 | 16:29.27 | 33 | 74234
    2 | 16:29.60 | 14:46.58 | 74235 | 140742
    3 | 31:16.43 | 16:04.57 | 140743 | 213099
    4 | 47:21.25 | 24:31.55 | 213100 | 323479
    Track 1
    Filename C:\EAC Rips\Beethoven - Complete Sym - Muti\CD 6\01 - Symphony No. 9 in D minor, Op.125 'Choral' - 1. Allegro ma non troppo, un poco maestoso.wav
    Pre-gap length 0:00:02.44
    Peak level 97.7 %
    Extraction speed 5.5 X
    Track quality 99.9 %
    Test CRC 4429F9E5
    Copy CRC 4429F9E5
    Accurately ripped (confidence 7) [76F83472] (AR v1)
    Copy OK
    Track 2
    Filename C:\EAC Rips\Beethoven - Complete Sym - Muti\CD 6\02 - Symphony No. 9 in D minor, Op.125 'Choral' - 2. Molto vivace - Presto.wav
    Pre-gap length 0:00:03.56
    Peak level 72.8 %
    Extraction speed 6.9 X
    Track quality 99.9 %
    Test CRC ED5229DB
    Copy CRC ED5229DB
    Accurately ripped (confidence 7) [978DFC81] (AR v1)
    Copy OK
    Track 3
    Filename C:\EAC Rips\Beethoven - Complete Sym - Muti\CD 6\03 - Symphony No. 9 in D minor, Op.125 'Choral' - 3. Adagio molto e cantabile - Andante moderato.wav
    Pre-gap length 0:00:04.34
    Peak level 52.0 %
    Extraction speed 8.1 X
    Track quality 99.9 %
    Test CRC 96F122DB
    Copy CRC 96F122DB
    Accurately ripped (confidence 6) [32EB89CB] (AR v1)
    Copy OK
    Track 4
    Filename C:\EAC Rips\Beethoven - Complete Sym - Muti\CD 6\04 - Symphony No. 9 in D minor, Op.125 'Choral' - 4. Presto - Recitativo - Allegro assai_.wav
    Peak level 97.7 %
    Extraction speed 9.6 X
    Track quality 99.9 %
    Test CRC 1C12384C
    Copy CRC 1C12384C
    Accurately ripped (confidence 7) [12C46999] (AR v1)
    Copy OK
    All tracks accurately ripped
    No errors occurred
    End of status report
    ==== Log checksum BE72C16889FA0C9A273C1BD39BEA241C2ADE692391A979CD5FBBE5FAA0D1A65A ====

    auCDtect Task Manager logs / Отчёты auCDtect Task ManagerCD 1: Symphonien Nrn. 1, 5

    -----------------------
    DON'T MODIFY THIS FILE
    -----------------------
    PERFORMER: auCDtect Task Manager, ver. 1.5.1RC3 build 1.5.1.4
    Copyright (c) 2008-2010 y-soft. All rights reserved
    ANALYZER: auCDtect: CD records authenticity detector, version 0.8.2
    Copyright (c) 2004 Oleg Berngardt. All rights reserved.
    Copyright (c) 2004 Alexander Djourik. All rights reserved.
    FILE: 08 - Symphonie Nr. 1 - IV. Adagio. - Allegro molto e vivace.flac
    Size: 23247753 Hash: 36FDEDCFCE5A7774D2775FE97A6260AB Accuracy: -m0
    Conclusion: CDDA 100%
    Signature: 5DC6A686BC5B609519BE0A165522215DD691E7DE
    FILE: 07 - Symphonie Nr. 1 - III. Menuetto. Allegro molto e vivace.flac
    Size: 13534563 Hash: 9921A3CD5E42DB5D4AE284DD71A41A1E Accuracy: -m0
    Conclusion: CDDA 100%
    Signature: 35006712519139F4F15EEECBA43FBEB26E4C56F0
    FILE: 06 - Symphonie Nr. 1 - II. Andante cantabile con moto.flac
    Size: 29343912 Hash: 4F4829A31357A98CC7F5538A59E848AD Accuracy: -m0
    Conclusion: CDDA 100%
    Signature: CA328F42441F703125C7F34B410C2FF1C2CAEC64
    FILE: 05 - Symphonie Nr. 1 - I. Adagio molto. - Allegro con brio.flac
    Size: 36274120 Hash: A4B7F934A4669C22469FA4BA3F782085 Accuracy: -m0
    Conclusion: CDDA 100%
    Signature: 2669CB967AF6FF3A2BEB349025EFA5340CD8A572
    FILE: 04 - Symphonie Nr. 5 - IV. Allegro. - Presto.flac
    Size: 51817712 Hash: C8D41C25F1A366240C8E608C505DE2B3 Accuracy: -m0
    Conclusion: CDDA 100%
    Signature: 7EDB7340FE83265F955ADDF9D7BC4725483B7794
    FILE: 03 - Symphonie Nr. 5 - III. Allegro.flac
    Size: 18035726 Hash: 0C9C9C53670853978474B3E8E3A1E7A5 Accuracy: -m0
    Conclusion: CDDA 100%
    Signature: 8FEEEA15BD18DA29D362C276A7AA1C68698A8C63
    FILE: 02 - Symphonie Nr. 5 - II. Andante con moto.flac
    Size: 34466457 Hash: CEC3C8E9C5EFAA37EADC0227D30572B8 Accuracy: -m0
    Conclusion: CDDA 100%
    Signature: F87B123119AC12CA8F8ACA05720F0C9F79F82F29
    FILE: 01 - Symphonie Nr. 5 - I. Allegro con brio.flac
    Size: 32263060 Hash: B6839E8569F0A497FF9B31F14B3D95E7 Accuracy: -m0
    Conclusion: CDDA 100%
    Signature: 9D11241770222B03FB1E0F7C32B46778AF493B9D

    CD 2: Symphonien Nrn. 2, 4

    -----------------------
    DON'T MODIFY THIS FILE
    -----------------------
    PERFORMER: auCDtect Task Manager, ver. 1.5.1RC3 build 1.5.1.4
    Copyright (c) 2008-2010 y-soft. All rights reserved
    ANALYZER: auCDtect: CD records authenticity detector, version 0.8.2
    Copyright (c) 2004 Oleg Berngardt. All rights reserved.
    Copyright (c) 2004 Alexander Djourik. All rights reserved.
    FILE: 08 - Symphonie Nr. 4 - IV. Allegro ma non troppo.flac
    Size: 29375160 Hash: 2FD415C9F416AD739DF81C769FAEECB5 Accuracy: -m0
    Conclusion: CDDA 100%
    Signature: 990410305DCF6A0DB8D0F478E20354FAE95970C3
    FILE: 07 - Symphonie Nr. 4 - III. Allegro vivace. - Un poco meno Allegro.flac
    Size: 22272481 Hash: C47E4133FA9978C99D9F0182258C1214 Accuracy: -m0
    Conclusion: CDDA 100%
    Signature: ECA470EA8EE4B02C8417D764291E9E82A19FFA63
    FILE: 06 - Symphonie Nr. 4 - II. Adagio.flac
    Size: 36642639 Hash: 3727C49F68091ADF35A592341D00EDAA Accuracy: -m0
    Conclusion: CDDA 100%
    Signature: 81F0D6B446FA96B072CC26C7B3410FB0E38FA23B
    FILE: 05 - Symphonie Nr. 4 - I. Adagio. - Allegro vivace.flac
    Size: 47075476 Hash: 34FC1EC878F4864FBDCCEDDA96EA51C3 Accuracy: -m0
    Conclusion: CDDA 100%
    Signature: 5A6B0C069CEE3E04C07D1F1BA428442E099C7E34
    FILE: 04 - Symphonie Nr. 2 - IV. Allegro molto.flac
    Size: 28975351 Hash: CB680A267322A6E72D25A8A0434F0DC8 Accuracy: -m0
    Conclusion: CDDA 100%
    Signature: EB299E1EB3BCBDE501605A4186CA1F44D5B6EABC
    FILE: 03 - Symphonie Nr. 2 - III. Scherzo. Allegro.flac
    Size: 14450536 Hash: D737853A1FD7D51211BC01539C89EF17 Accuracy: -m0
    Conclusion: CDDA 100%
    Signature: 1B53BE8CB35C3C9F2350994F3984ED38EFD5E728
    FILE: 02 - Symphonie Nr. 2 - II. Larghetto.flac
    Size: 47320967 Hash: 797E7AFF9AB73DF3EF770FD7A4E15936 Accuracy: -m0
    Conclusion: CDDA 100%
    Signature: 28468FF26B0D5DD933DEFD8374745FA23B21C701
    FILE: 01 - Symphonie Nr. 2 - I. Adagio molto. - Allegro con brio.flac
    Size: 59354094 Hash: A375AF3311F08D50AC9D34F7E9069601 Accuracy: -m0
    Conclusion: CDDA 100%
    Signature: C5AD430202EA909FF1B5E729AE5BB3E89B5CA2A1

    CD 3: Symphonie Nr. 3 • «Fidelio» • «Die Weihe des Hauses»

    -----------------------
    DON'T MODIFY THIS FILE
    -----------------------
    PERFORMER: auCDtect Task Manager, ver. 1.5.1RC3 build 1.5.1.4
    Copyright (c) 2008-2010 y-soft. All rights reserved
    ANALYZER: auCDtect: CD records authenticity detector, version 0.8.2
    Copyright (c) 2004 Oleg Berngardt. All rights reserved.
    Copyright (c) 2004 Alexander Djourik. All rights reserved.
    FILE: 06 - Ouvertuere ''Die Weihe des Hauses'', Op. 124.flac
    Size: 44246188 Hash: 2A7186DEAEC50EE0E31E916120C93CBB Accuracy: -m0
    Conclusion: CDDA 100%
    Signature: A14E0246C4A84F5190D5BFFA523CEB3CE3BF4195
    FILE: 05 - Ouvertuere ''Fidelio'', Op. 72c.flac
    Size: 27867432 Hash: F297400F75852B16FDBD78B797C6B368 Accuracy: -m0
    Conclusion: CDDA 99%
    Signature: 39D1FCCCD190483E2FE6A76260052B05675CB603
    FILE: 04 - Symphonie Nr. 3 - IV. Finale. Allegro molto.flac
    Size: 50580017 Hash: 5810CF84348FB79070582B164E952F5B Accuracy: -m0
    Conclusion: CDDA 100%
    Signature: 66D0657997D6C80BDB397283988FFC3B54A38B72
    FILE: 03 - Symphonie Nr. 3 - III. Scherzo. Allegro vivace.flac
    Size: 21552099 Hash: DE75E50F4BDA6D5D30DB65049353E06B Accuracy: -m0
    Conclusion: CDDA 100%
    Signature: 13D79CF410A2F620E9729757F437A4726A1E7B60
    FILE: 02 - Symphonie Nr. 3 - II. Marcia funebre. Adagio assai.flac
    Size: 62184134 Hash: 94F99C83761ADBEA2A6E977F135DB9EA Accuracy: -m0
    Conclusion: CDDA 100%
    Signature: E53CDF504522BEAAA8E633BD0CABAC2AD0B1BFCE
    FILE: 01 - Symphonie Nr. 3 - I. Allegro con brio.flac
    Size: 75199190 Hash: 1F1C81F3060DEDAD646C796EF903366C Accuracy: -m0
    Conclusion: CDDA 100%
    Signature: 88E1337DCECB9643B889878AC9C7A376D9DD805E

    CD 4: Symphonie Nr. 6 • «Leonore» Nr. 3

    -----------------------
    DON'T MODIFY THIS FILE
    -----------------------
    PERFORMER: auCDtect Task Manager, ver. 1.5.1RC3 build 1.5.1.4
    Copyright (c) 2008-2010 y-soft. All rights reserved
    ANALYZER: auCDtect: CD records authenticity detector, version 0.8.2
    Copyright (c) 2004 Oleg Berngardt. All rights reserved.
    Copyright (c) 2004 Alexander Djourik. All rights reserved.
    FILE: 06 - Ouvertuere ''Leonore'' Nr. 3, Op. 72b.flac
    Size: 52966504 Hash: 12279A30A1E1643680FEA309AF3E96E0 Accuracy: -m0
    Conclusion: CDDA 100%
    Signature: E4A8C638D6497474AEC71F1FA6216B90C97FF35F
    FILE: 05 - Symphonie Nr. 6 - V. Hirtengesang. Frohe und dankbare Gefuehle nach dem Sturm.flac
    Size: 44068731 Hash: 4486F8C4835E254D7F321F0D93203434 Accuracy: -m0
    Conclusion: CDDA 100%
    Signature: 169D85302CA123B0072F19D131E67A56DB670BE3
    FILE: 04 - Symphonie Nr. 6 - IV. Gewitter. Sturm.flac
    Size: 16464477 Hash: E3269C857061B6429A2FF142E196252D Accuracy: -m0
    Conclusion: CDDA 100%
    Signature: B3A21D046908CB8DFF1E14DBDABE79F6F770C9C9
    FILE: 03 - Symphonie Nr. 6 - III. Lustiges Zusammensein der Landleute.flac
    Size: 23671783 Hash: AFB445DE66421E314F09B8B92725F405 Accuracy: -m0
    Conclusion: CDDA 99%
    Signature: 1629CA028F6FD661F95649360C0A4B8667C3E3D5
    FILE: 02 - Symphonie Nr. 6 - II. Szene am Bach.flac
    Size: 44086939 Hash: 588980DC4FF803077C2B3B27959C92BA Accuracy: -m0
    Conclusion: CDDA 100%
    Signature: 333255DA6EF6A31C32FB1D27BA82F9B618C23337
    FILE: 01 - Symphonie Nr. 6 - I. Erwachen heiterer Empfindungen bei der Ankunft auf dem Lande.flac
    Size: 50287967 Hash: 3DB3A4D5EF5B9E6DBB82BBBB8EA2C075 Accuracy: -m0
    Conclusion: CDDA 99%
    Signature: 018B51566670EF358845402F881F3DB8F33E2B5A

    CD 5: Symphonien Nrn. 7, 8

    -----------------------
    DON'T MODIFY THIS FILE
    -----------------------
    PERFORMER: auCDtect Task Manager, ver. 1.5.1RC3 build 1.5.1.4
    Copyright (c) 2008-2010 y-soft. All rights reserved
    ANALYZER: auCDtect: CD records authenticity detector, version 0.8.2
    Copyright (c) 2004 Oleg Berngardt. All rights reserved.
    Copyright (c) 2004 Alexander Djourik. All rights reserved.
    FILE: 08 - Symphonie Nr. 8 - IV. Allegro vivace.flac
    Size: 31594250 Hash: CBB53778430120A192D7B133FE93E03B Accuracy: -m0
    Conclusion: CDDA 100%
    Signature: 63D32F70FDD907E9FE88387434C53832F6A3A8E8
    FILE: 07 - Symphonie Nr. 8 - III. Tempo di Menuetto.flac
    Size: 20141685 Hash: 5F0F0E9480DFBED8BCE12EA2522D174E Accuracy: -m0
    Conclusion: CDDA 100%
    Signature: BF760D2524A37D5DB792D823DDF3890431C89250
    FILE: 06 - Symphonie Nr. 8 - II. Allegretto scherzando.flac
    Size: 13158564 Hash: 78E3D1C59A2BF3A3B3185A6F453396A1 Accuracy: -m0
    Conclusion: CDDA 100%
    Signature: 1D1B48BC8FEBC02029161ACA0953B5FCECEB0814
    FILE: 05 - Symphonie Nr. 8 - I. Allegro vivace e con brio.flac
    Size: 40284129 Hash: 31913F83C46B24A8ADA168598976D961 Accuracy: -m0
    Conclusion: CDDA 100%
    Signature: 015D6CB2A45229E94CFDA9E0B64843B5EEE06592
    FILE: 04 - Symphonie Nr. 7 - IV. Allegro con brio.flac
    Size: 43010927 Hash: EB7AD7B12BA15820C3D19C18EB7DE08B Accuracy: -m0
    Conclusion: CDDA 100%
    Signature: 871F3B1AB7FF868FCA680F718055F04BEBE1C4ED
    FILE: 03 - Symphonie Nr. 7 - III. Presto.flac
    Size: 39739005 Hash: C60D9B129E22DD00F302670E64FE1AAA Accuracy: -m0
    Conclusion: CDDA 100%
    Signature: E1512F5BFBC550031D946F85793721F63BBB20C5
    FILE: 02 - Symphonie Nr. 7 - II. Allegretto.flac
    Size: 33912682 Hash: 36D9FEE2E695A715F03CF6E282E93DD9 Accuracy: -m0
    Conclusion: CDDA 100%
    Signature: 3B7B489ACA1F67CD793097E90D9E6D84724637BD
    FILE: 01 - Symphonie Nr. 7 - I. Poco sostenuto. - Vivace.flac
    Size: 60003365 Hash: 21152202C9BE39971BCBF59B0DF122FD Accuracy: -m0
    Conclusion: CDDA 100%
    Signature: 4828760B684183CB5A8D577D80E38CD793327662

    CD 6: Symphonie Nr. 9

    -----------------------
    DON'T MODIFY THIS FILE
    -----------------------
    PERFORMER: auCDtect Task Manager, ver. 1.5.1RC3 build 1.5.1.4
    Copyright (c) 2008-2010 y-soft. All rights reserved
    ANALYZER: auCDtect: CD records authenticity detector, version 0.8.2
    Copyright (c) 2004 Oleg Berngardt. All rights reserved.
    Copyright (c) 2004 Alexander Djourik. All rights reserved.
    FILE: 04 - Symphonie Nr. 9 - IV. Finale. Hymne an die Freude.flac
    Size: 110812399 Hash: 846EF2613B062F418C27A90419D97EB9 Accuracy: -m0
    Conclusion: CDDA 100%
    Signature: 0B5C05292472F139971165BE4E70D2BC9D4ED52A
    FILE: 03 - Symphonie Nr. 9 - III. Adagio molto e cantabile. - Andante moderato.flac
    Size: 54813688 Hash: 699A0D06D795F6D172F12E4963BEF7E8 Accuracy: -m0
    Conclusion: CDDA 100%
    Signature: 6CFD5B1A4A9E29A900ECB355657F79456D77404C
    FILE: 02 - Symphonie Nr. 9 - II. Molto vivace. - Presto.flac
    Size: 57641353 Hash: 376940AF324B8C2FD10874194F00DA47 Accuracy: -m0
    Conclusion: CDDA 100%
    Signature: 2807DC77A61D9A5F193005E6FBF551405D670DCD
    FILE: 01 - Symphonie Nr. 9 - I. Allegro ma non troppo, un poco maestoso.flac
    Size: 67408892 Hash: 6C977AABDADA67E5FED832A33D74E01C Accuracy: -m0
    Conclusion: CDDA 100%
    Signature: 4A8188668B5AF30B3588162972CC068C3F999AF9

    CUETools logs / Отчёты CUEToolsCD 1: Symphonien Nrn. 1, 5

    [CUETools log; Date: 28.01.2015 13:17:08; Version: 2.1.4]
    Pregap length 00:00:33.
    [AccurateRip ID: 001373d0-0080af52-540dc408] found.
    Track [ CRC | V2 ] Status
    01 [00dbe1bd|9a1f4c8c] (10+04/25) Accurately ripped
    02 [830da9f9|0a49c406] (11+04/26) Accurately ripped
    03 [1bd94dc2|7290235d] (11+04/26) Accurately ripped
    04 [87f1aa58|d202b3ca] (11+04/26) Accurately ripped
    05 [ad2e9c78|6e54840c] (10+04/25) Accurately ripped
    06 [78d38fc1|a3e70e26] (11+04/26) Accurately ripped
    07 [8de7f488|51abc891] (11+04/26) Accurately ripped
    08 [cdd2f347|f031d4ef] (11+04/26) Accurately ripped
    Offsetted by -1388:
    01 [621f3857] (02/25) Accurately ripped
    02 [b6efd642] (02/26) Accurately ripped
    03 [42b0e95f] (02/26) Accurately ripped
    04 [0d099b98] (02/26) Accurately ripped
    05 [5d71d7fa] (02/25) Accurately ripped
    06 [a5c0377c] (02/26) Accurately ripped
    07 [5bfadc45] (02/26) Accurately ripped
    08 [d6e173a5] (02/26) Accurately ripped
    Offsetted by 268:
    01 [c9c634c9] (04/25) Accurately ripped
    02 [4a7d26b7] (04/26) Accurately ripped
    03 [16ba7fba] (04/26) Accurately ripped
    04 [cf37c3ba] (04/26) Accurately ripped
    05 [70716e19] (04/25) Accurately ripped
    06 [997b6724] (04/26) Accurately ripped
    07 [1ac51bcd] (04/26) Accurately ripped
    08 [f00f6df2] (04/26) Accurately ripped
    Offsetted by -1097:
    01 [d7c4cb95] (00/25) No match (V2 was not tested)
    02 [da050235] (00/26) No match (V2 was not tested)
    03 [26d030e7] (00/26) No match (V2 was not tested)
    04 [7fa3f2b0] (00/26) No match (V2 was not tested)
    05 [a49e210a] (00/25) No match (V2 was not tested)
    06 [3dacb165] (00/26) No match (V2 was not tested)
    07 [a56e28d0] (00/26) No match (V2 was not tested)
    08 [f4eaee64] (00/26) No match (V2 was not tested)
    Offsetted by -985:
    01 [424628d6] (00/25) No match (V2 was not tested)
    02 [482ef3c1] (00/26) No match (V2 was not tested)
    03 [f457d0f2] (00/26) No match (V2 was not tested)
    04 [90d48eb0] (00/26) No match (V2 was not tested)
    05 [276e30e8] (00/25) No match (V2 was not tested)
    06 [b4996034] (00/26) No match (V2 was not tested)
    07 [024924b4] (00/26) No match (V2 was not tested)
    08 [0eeab26f] (00/26) No match (V2 was not tested)
    Track Peak [ CRC32 ] [W/O NULL] [ LOG ]
    -- 83,8 [43F899AD] [86C69DDC]
    01 70,5 [7D575C8E] [0CC8A9F2] CRC32
    02 59,0 [D1A54F1A] [9282B7A3] CRC32
    03 59,1 [7F3B07CD] [3357F5A3] CRC32
    04 83,8 [D31C0977] [2E2EC70C] CRC32
    05 50,0 [E14FA629] [1022B326] CRC32
    06 39,9 [E6EAE3B5] [6071ACC7] CRC32
    07 65,0 [B6A5F3D0] [9AB6445C] CRC32
    08 56,3 [71BF91AE] [51FC27BA] CRC32

    CD 2: Symphonien Nrn. 2, 4

    [CUETools log; Date: 28.01.2015 13:17:20; Version: 2.1.4]
    Pregap length 00:00:33.
    [AccurateRip ID: 001682c8-00928616-680fd708] found.
    Track [ CRC | V2 ] Status
    01 [c498e6e9|5e6b4152] (09+04/23) Accurately ripped
    02 [cb7bf23a|9c604912] (09+04/23) Accurately ripped
    03 [6c9f7999|7111c9f5] (09+04/23) Accurately ripped
    04 [8ac5cf3e|d55b1e73] (09+04/23) Accurately ripped
    05 [930fc958|8cdaa5bc] (08+03/21) Accurately ripped
    06 [b69c7869|f74df7c9] (09+04/23) Accurately ripped
    07 [a29ef1ae|7f7e9400] (09+04/22) Accurately ripped
    08 [d3f1b165|dc7d0af9] (09+04/23) Accurately ripped
    Offsetted by -363:
    01 [1c2f79ee] (03/23) Accurately ripped
    02 [9e044a00] (03/23) Accurately ripped
    03 [06e6eca3] (03/23) Accurately ripped
    04 [b5499d3d] (03/23) Accurately ripped
    05 [1068a52e] (03/21) Accurately ripped
    06 [e33ac63b] (03/23) Accurately ripped
    07 [85cc283d] (03/22) Accurately ripped
    08 [88ebbb04] (03/23) Accurately ripped
    Offsetted by 266:
    01 [5eb374cb] (02/23) Accurately ripped
    02 [09bca045] (02/23) Accurately ripped
    03 [4d1767dc] (02/23) Accurately ripped
    04 [728e5cb6] (02/23) Accurately ripped
    05 [26d2f6de] (02/21) Accurately ripped
    06 [f26927d8] (02/23) Accurately ripped
    07 [9d087d18] (02/22) Accurately ripped
    08 [7883c10e] (02/23) Accurately ripped
    Track Peak [ CRC32 ] [W/O NULL] [ LOG ]
    -- 93,9 [82EDF304] [7BD6C198]
    01 93,9 [E00A6B3F] [2EAC7170] CRC32
    02 67,8 [762DEE7C] [036E5715] CRC32
    03 81,4 [212DBC1B] [EC40B08F] CRC32
    04 85,9 [B79249FE] [64FB5934] CRC32
    05 75,6 [6EF85B35] [1A68BFB0] CRC32
    06 59,2 [94083835] [E1B8F368] CRC32
    07 62,9 [C3A37FB0] [DCA88EAC] CRC32
    08 56,3 [117B8D8B] [68D905BE] CRC32

    CD 3: Symphonie Nr. 3 • «Fidelio» • «Die Weihe des Hauses»

    [CUETools log; Date: 28.01.2015 13:17:34; Version: 2.1.4]
    Pregap length 00:00:33.
    [AccurateRip ID: 0012a74b-005fb5a3-37102b06] found.
    Track [ CRC | V2 ] Status
    01 [aca64a1a|cb577f01] (09+04/25) Accurately ripped
    02 [1a04eaa9|ae30b300] (09+04/25) Accurately ripped
    03 [f7c79a46|e6bf09ef] (09+04/25) Accurately ripped
    04 [c6819189|0ac9d32c] (09+04/23) Accurately ripped
    05 [3732545c|8d850173] (09+04/23) Accurately ripped
    06 [a04fd59d|f707f57f] (08+04/24) Accurately ripped
    Offsetted by -152:
    01 [f9e856e2] (06/25) Accurately ripped
    02 [6ec67af2] (06/25) Accurately ripped
    03 [b649767e] (06/25) Accurately ripped
    04 [059d4ba8] (06/23) Accurately ripped
    05 [9ff88aec] (06/23) Accurately ripped
    06 [e3d078f5] (06/24) Accurately ripped
    Offsetted by 268:
    01 [6c3c91b0] (02/25) Accurately ripped
    02 [970149fc] (02/25) Accurately ripped
    03 [1e097af5] (02/25) Accurately ripped
    04 [9257e19d] (00/23) No match (V2 was not tested)
    05 [cf4e1c94] (00/23) No match (V2 was not tested)
    06 [00df8d31] (02/24) Accurately ripped
    Track Peak [ CRC32 ] [W/O NULL] [ LOG ]
    -- 94,4 [E258AE19] [501339C7]
    01 73,3 [80290FEC] [5BC1DD86] CRC32
    02 64,3 [94CB2F5F] [38C5A301] CRC32
    03 73,6 [9B8D4187] [26A92EE7] CRC32
    04 80,3 [EB1100FF] [73CD7794] CRC32
    05 94,4 [03CD002D] [F8259CC3] CRC32
    06 49,9 [46692FE4] [85DA9B06] CRC32

    CD 4: Symphonie Nr. 6 • «Leonore» Nr. 3

    [CUETools log; Date: 28.01.2015 13:17:44; Version: 2.1.4]
    Pregap length 00:00:33.
    [AccurateRip ID: 000e64da-004b11b2-3f0df906] found.
    Track [ CRC | V2 ] Status
    01 [c8b1d757|a30a7350] (09+04/25) Accurately ripped
    02 [3ab37f82|9194192a] (09+04/25) Accurately ripped
    03 [cc86b800|7c0085be] (09+04/25) Accurately ripped
    04 [c30bb3c6|97813b6e] (09+04/25) Accurately ripped
    05 [0721abb3|7a8fbdb8] (09+04/25) Accurately ripped
    06 [ce2a5748|7a64acd0] (09+04/22) Accurately ripped
    Offsetted by -508:
    01 [686ba380] (04/25) Accurately ripped
    02 [ab780537] (04/25) Accurately ripped
    03 [d402f701] (04/25) Accurately ripped
    04 [9b30d132] (04/25) Accurately ripped
    05 [39732748] (04/25) Accurately ripped
    06 [8197cd78] (04/22) Accurately ripped
    Offsetted by 269:
    01 [011b57a9] (03/25) Accurately ripped
    02 [5575ccb5] (03/25) Accurately ripped
    03 [273b7191] (03/25) Accurately ripped
    04 [6e4950a9] (03/25) Accurately ripped
    05 [2c2ef2a1] (03/25) Accurately ripped
    06 [07d8b164] (03/22) Accurately ripped
    Track Peak [ CRC32 ] [W/O NULL] [ LOG ]
    -- 98,8 [5A60B647] [CFDA1DE1]
    01 65,2 [76E978B2] [B8584181] CRC32
    02 31,9 [67ED8662] [9233310B] CRC32
    03 69,4 [AC5AD170] [009CB2D8] CRC32
    04 98,8 [A94723D4] [E7A16C6C] CRC32
    05 52,0 [21364037] [9F296DE7] CRC32
    06 97,2 [7DFF3F19] [55E06E33] CRC32

    CD 5: Symphonien Nrn. 7, 8

    [CUETools log; Date: 28.01.2015 13:17:57; Version: 2.1.4]
    Pregap length 00:00:33.
    [AccurateRip ID: 00171260-009425c1-600f6408] found.
    Track [ CRC | V2 ] Status
    01 [cbe55ae8|cbdb2902] (09+04/32) Accurately ripped
    02 [e40131a3|56ef8d2c] (09+04/32) Accurately ripped
    03 [bed0b0fe|47aa6d77] (09+04/33) Accurately ripped
    04 [42d958fa|3164702f] (09+04/33) Accurately ripped
    05 [7e6f08df|e8fdd948] (09+04/33) Accurately ripped
    06 [6be062a3|0617de5d] (09+04/33) Accurately ripped
    07 [44804809|d6a83b85] (09+04/33) Accurately ripped
    08 [dcfd345d|076c0432] (09+04/33) Accurately ripped
    Offsetted by 421:
    01 [32901b79] (03/32) Accurately ripped
    02 [c3ea8416] (03/32) Accurately ripped
    03 [13752419] (03/33) Accurately ripped
    04 [4b57dae0] (03/33) Accurately ripped
    05 [dac24bb8] (03/33) Accurately ripped
    06 [1501c749] (03/33) Accurately ripped
    07 [6def33cd] (03/33) Accurately ripped
    08 [543223ed] (03/33) Accurately ripped
    Offsetted by 894:
    01 [7bf4216e] (04/32) Accurately ripped
    02 [4c8ec1b5] (04/32) Accurately ripped
    03 [c8e6c200] (05/33) Accurately ripped
    04 [5274471e] (05/33) Accurately ripped
    05 [a76997ea] (05/33) Accurately ripped
    06 [9a96cd28] (05/33) Accurately ripped
    07 [0f0f20cd] (05/33) Accurately ripped
    08 [1879eaff] (05/33) Accurately ripped
    Offsetted by -18:
    01 [4256741e] (00/32) No match (V2 was not tested)
    02 [1fc07dc5] (00/32) No match (V2 was not tested)
    03 [d8624990] (00/33) No match (V2 was not tested)
    04 [2fa2af3e] (00/33) No match (V2 was not tested)
    05 [23c6b7ff] (00/33) No match (V2 was not tested)
    06 [014cb5da] (00/33) No match (V2 was not tested)
    07 [8e72903e] (00/33) No match (V2 was not tested)
    08 [af29692f] (00/33) No match (V2 was not tested)
    Track Peak [ CRC32 ] [W/O NULL] [ LOG ]
    -- 97,7 [5E869C6D] [889DA852]
    01 97,7 [3AC3C0CA] [3F544563] CRC32
    02 59,5 [539A72AD] [F9CA5BE4] CRC32
    03 78,3 [2D6C05E6] [1E3B378B] CRC32
    04 91,4 [DF52C1D8] [AE83473F] CRC32
    05 87,4 [839ECADE] [DFF0A6BB] CRC32
    06 45,6 [37F2AC36] [126CBC38] CRC32
    07 55,3 [0CEE3806] [73B51957] CRC32
    08 96,6 [8C1C9ED8] [8A981852] CRC32

    CD 6: Symphonie Nr. 9

    [CUETools log; Date: 28.01.2015 13:18:20; Version: 2.1.4]
    Pregap length 00:00:33.
    [AccurateRip ID: 000b77e7-002e6514-3e10d904] found.
    Track [ CRC | V2 ] Status
    01 [76f83472|65215589] (08+08/34) Accurately ripped
    02 [978dfc81|462dcf88] (08+08/35) Accurately ripped
    03 [32eb89cb|aba6f3ba] (07+07/33) Accurately ripped
    04 [12c46999|b48e1186] (08+08/31) Accurately ripped
    Offsetted by -2847:
    01 [f796e54a] (07/34) Accurately ripped
    02 [a9c2a28e] (08/35) Accurately ripped
    03 [3389dad1] (00/33) No match (V2 was not tested)
    04 [ee43b3b8] (06/31) Accurately ripped
    Offsetted by 2401:
    01 [505db14a] (06/34) Accurately ripped
    02 [59cd7d0e] (06/35) Accurately ripped
    03 [546d3c8d] (00/33) No match (V2 was not tested)
    04 [25feab94] (06/31) Accurately ripped
    Track Peak [ CRC32 ] [W/O NULL] [ LOG ]
    -- 97,7 [55EF64C6] [F5C87E04]
    01 97,7 [4429F9E5] [A91CE4D1] CRC32
    02 72,8 [ED5229DB] [5BB2FC3D] CRC32
    03 52,0 [96F122DB] [728801A0] CRC32
    04 97,7 [1C12384C] [42B66196] CRC32

    CUE sheetsCD 1: Symphonien Nrn. 1, 5

    TITLE "Ludwig van Beethoven: Symphonien • Ouvertüren"
    PERFORMER "Riccardo Muti"
    REM GENRE Classical
    REM DISCID 540DC408
    REM COMMENT "ExactAudioCopy v1.0b3"
    CATALOG 0000000000000
    FILE "01 - Symphonie Nr. 5 - I. Allegro con brio.flac" WAVE
    TRACK 01 AUDIO
    TITLE "Symphonie Nr. 5 c-moll, Op. 67: I. Allegro con brio"
    PERFORMER "Philadelphia Orchestra. Riccardo Muti, conductor"
    REM DATE 1985
    PREGAP 00:00:33
    INDEX 01 00:00:00
    TRACK 02 AUDIO
    TITLE "Symphonie Nr. 5 c-moll, Op. 67: II. Andante con moto"
    PERFORMER "Philadelphia Orchestra. Riccardo Muti, conductor"
    REM DATE 1985
    INDEX 00 07:17:57
    FILE "02 - Symphonie Nr. 5 - II. Andante con moto.flac" WAVE
    INDEX 01 00:00:00
    TRACK 03 AUDIO
    TITLE "Symphonie Nr. 5 c-moll, Op. 67: III. Allegro"
    PERFORMER "Philadelphia Orchestra. Riccardo Muti, conductor"
    REM DATE 1985
    INDEX 00 09:53:67
    FILE "03 - Symphonie Nr. 5 - III. Allegro.flac" WAVE
    INDEX 01 00:00:00
    TRACK 04 AUDIO
    TITLE "Symphonie Nr. 5 c-moll, Op. 67: IV. Allegro. — Presto"
    PERFORMER "Philadelphia Orchestra. Riccardo Muti, conductor"
    REM DATE 1985
    INDEX 00 05:08:37
    FILE "04 - Symphonie Nr. 5 - IV. Allegro. - Presto.flac" WAVE
    INDEX 01 00:00:00
    TRACK 05 AUDIO
    TITLE "Symphonie Nr. 1 C-dur, Op. 21: I. Adagio molto. — Allegro con brio"
    PERFORMER "Philadelphia Orchestra. Riccardo Muti, conductor"
    REM DATE 1985
    INDEX 00 10:24:07
    FILE "05 - Symphonie Nr. 1 - I. Adagio molto. - Allegro con brio.flac" WAVE
    INDEX 01 00:00:00
    TRACK 06 AUDIO
    TITLE "Symphonie Nr. 1 C-dur, Op. 21: II. Andante cantabile con moto"
    PERFORMER "Philadelphia Orchestra. Riccardo Muti, conductor"
    REM DATE 1985
    INDEX 00 08:45:37
    FILE "06 - Symphonie Nr. 1 - II. Andante cantabile con moto.flac" WAVE
    INDEX 01 00:00:00
    TRACK 07 AUDIO
    TITLE "Symphonie Nr. 1 C-dur, Op. 21: III. Menuetto: Allegro molto e vivace"
    PERFORMER "Philadelphia Orchestra. Riccardo Muti, conductor"
    REM DATE 1985
    INDEX 00 08:11:57
    FILE "07 - Symphonie Nr. 1 - III. Menuetto. Allegro molto e vivace.flac" WAVE
    INDEX 01 00:00:00
    TRACK 08 AUDIO
    TITLE "Symphonie Nr. 1 C-dur, Op. 21: IV. Adagio. — Allegro molto e vivace"
    PERFORMER "Philadelphia Orchestra. Riccardo Muti, conductor"
    REM DATE 1985
    INDEX 00 03:30:37
    FILE "08 - Symphonie Nr. 1 - IV. Adagio. - Allegro molto e vivace.flac" WAVE
    INDEX 01 00:00:00

    CD 2: Symphonien Nrn. 2, 4

    TITLE "Ludwig van Beethoven: Symphonien • Ouvertüren"
    PERFORMER "Riccardo Muti"
    REM GENRE Classical
    REM DISCID 680FD708
    REM COMMENT "ExactAudioCopy v1.0b3"
    CATALOG 0000000000000
    FILE "01 - Symphonie Nr. 2 - I. Adagio molto. - Allegro con brio.flac" WAVE
    TRACK 01 AUDIO
    TITLE "Symphonie Nr. 2 D-dur, Op. 36: I. Adagio molto. — Allegro con brio"
    PERFORMER "Philadelphia Orchestra. Riccardo Muti, conductor"
    REM DATE 1987
    PREGAP 00:00:33
    INDEX 01 00:00:00
    TRACK 02 AUDIO
    TITLE "Symphonie Nr. 2 D-dur, Op. 36: II. Larghetto"
    PERFORMER "Philadelphia Orchestra. Riccardo Muti, conductor"
    REM DATE 1987
    INDEX 00 12:32:45
    FILE "02 - Symphonie Nr. 2 - II. Larghetto.flac" WAVE
    INDEX 01 00:00:00
    TRACK 03 AUDIO
    TITLE "Symphonie Nr. 2 D-dur, Op. 36: III. Scherzo: Allegro"
    PERFORMER "Philadelphia Orchestra. Riccardo Muti, conductor"
    REM DATE 1987
    INDEX 00 11:39:68
    FILE "03 - Symphonie Nr. 2 - III. Scherzo. Allegro.flac" WAVE
    INDEX 01 00:00:00
    TRACK 04 AUDIO
    TITLE "Symphonie Nr. 2 D-dur, Op. 36: IV. Allegro molto"
    PERFORMER "Philadelphia Orchestra. Riccardo Muti, conductor"
    REM DATE 1987
    INDEX 00 03:39:10
    FILE "04 - Symphonie Nr. 2 - IV. Allegro molto.flac" WAVE
    INDEX 01 00:00:00
    TRACK 05 AUDIO
    TITLE "Symphonie Nr. 4 B-dur, Op. 60: I. Adagio. — Allegro vivace"
    PERFORMER "Philadelphia Orchestra. Riccardo Muti, conductor"
    REM DATE 1985
    INDEX 00 06:11:12
    FILE "05 - Symphonie Nr. 4 - I. Adagio. - Allegro vivace.flac" WAVE
    INDEX 01 00:00:00
    TRACK 06 AUDIO
    TITLE "Symphonie Nr. 4 B-dur, Op. 60: II. Adagio"
    PERFORMER "Philadelphia Orchestra. Riccardo Muti, conductor"
    REM DATE 1985
    INDEX 00 11:08:00
    FILE "06 - Symphonie Nr. 4 - II. Adagio.flac" WAVE
    INDEX 01 00:00:00
    TRACK 07 AUDIO
    TITLE "Symphonie Nr. 4 B-dur, Op. 60: III. Allegro vivace. — Un poco meno Allegro"
    PERFORMER "Philadelphia Orchestra. Riccardo Muti, conductor"
    REM DATE 1985
    INDEX 00 10:01:70
    FILE "07 - Symphonie Nr. 4 - III. Allegro vivace. - Un poco meno Allegro.flac" WAVE
    INDEX 01 00:00:00
    TRACK 08 AUDIO
    TITLE "Symphonie Nr. 4 B-dur, Op. 60: IV. Allegro ma non troppo"
    PERFORMER "Philadelphia Orchestra. Riccardo Muti, conductor"
    REM DATE 1985
    INDEX 00 05:26:65
    FILE "08 - Symphonie Nr. 4 - IV. Allegro ma non troppo.flac" WAVE
    INDEX 01 00:00:00

    CD 3: Symphonie Nr. 3 • «Fidelio» • «Die Weihe des Hauses»

    TITLE "Ludwig van Beethoven: Symphonien • Ouvertüren"
    PERFORMER "Riccardo Muti"
    REM GENRE Classical
    REM DISCID 37102B06
    REM COMMENT "ExactAudioCopy v1.0b3"
    CATALOG 0000000000000
    FILE "01 - Symphonie Nr. 3 - I. Allegro con brio.flac" WAVE
    TRACK 01 AUDIO
    TITLE "Symphonie Nr. 3 Es-dur «Eroica», Op. 55: I. Allegro con brio"
    PERFORMER "Philadelphia Orchestra. Riccardo Muti, conductor"
    REM DATE 1987
    PREGAP 00:00:33
    INDEX 01 00:00:00
    TRACK 02 AUDIO
    TITLE "Symphonie Nr. 3 Es-dur «Eroica», Op. 55: II. Marcia funebre: Adagio assai"
    PERFORMER "Philadelphia Orchestra. Riccardo Muti, conductor"
    REM DATE 1987
    INDEX 00 17:42:72
    FILE "02 - Symphonie Nr. 3 - II. Marcia funebre. Adagio assai.flac" WAVE
    INDEX 01 00:00:00
    TRACK 03 AUDIO
    TITLE "Symphonie Nr. 3 Es-dur «Eroica», Op. 55: III. Scherzo: Allegro vivace"
    PERFORMER "Philadelphia Orchestra. Riccardo Muti, conductor"
    REM DATE 1987
    INDEX 00 16:18:22
    FILE "03 - Symphonie Nr. 3 - III. Scherzo. Allegro vivace.flac" WAVE
    INDEX 01 00:00:00
    TRACK 04 AUDIO
    TITLE "Symphonie Nr. 3 Es-dur «Eroica», Op. 55: IV. Finale: Allegro molto"
    PERFORMER "Philadelphia Orchestra. Riccardo Muti, conductor"
    REM DATE 1987
    INDEX 00 05:59:65
    FILE "04 - Symphonie Nr. 3 - IV. Finale. Allegro molto.flac" WAVE
    INDEX 01 00:00:00
    TRACK 05 AUDIO
    TITLE "Ouvertüre «Fidelio», Op. 72c"
    PERFORMER "Philadelphia Orchestra. Riccardo Muti, conductor"
    REM DATE 1985
    INDEX 00 11:51:45
    FILE "05 - Ouvertuere ''Fidelio'', Op. 72c.flac" WAVE
    INDEX 01 00:00:00
    TRACK 06 AUDIO
    TITLE "Ouvertüre «Die Weihe des Hauses», Op. 124"
    PERFORMER "Philadelphia Orchestra. Riccardo Muti, conductor"
    REM DATE 1985
    INDEX 00 06:46:20
    FILE "06 - Ouvertuere ''Die Weihe des Hauses'', Op. 124.flac" WAVE
    INDEX 01 00:00:00

    CD 4: Symphonie Nr. 6 • «Leonore» Nr. 3

    TITLE "Ludwig van Beethoven: Symphonien • Ouvertüren"
    PERFORMER "Riccardo Muti"
    REM GENRE Classical
    REM DISCID 3F0DF906
    REM COMMENT "ExactAudioCopy v1.0b3"
    CATALOG 0000000000000
    FILE "01 - Symphonie Nr. 6 - I. Erwachen heiterer Empfindungen bei der Ankunft auf dem Lande.flac" WAVE
    TRACK 01 AUDIO
    TITLE "Symphonie Nr. 6 F-dur «Pastorale», Op. 68: I. Erwachen heiterer Empfindungen bei der Ankunft auf dem Lande"
    PERFORMER "Philadelphia Orchestra. Riccardo Muti, conductor"
    REM DATE 1987
    PREGAP 00:00:33
    INDEX 01 00:00:00
    FILE "02 - Symphonie Nr. 6 - II. Szene am Bach.flac" WAVE
    TRACK 02 AUDIO
    TITLE "Symphonie Nr. 6 F-dur «Pastorale», Op. 68: II. Szene am Bach"
    PERFORMER "Philadelphia Orchestra. Riccardo Muti, conductor"
    REM DATE 1987
    INDEX 01 00:00:00
    TRACK 03 AUDIO
    TITLE "Symphonie Nr. 6 F-dur «Pastorale», Op. 68: III. Lustiges Zusammensein der Landleute"
    PERFORMER "Philadelphia Orchestra. Riccardo Muti, conductor"
    REM DATE 1987
    INDEX 00 12:39:56
    FILE "03 - Symphonie Nr. 6 - III. Lustiges Zusammensein der Landleute.flac" WAVE
    INDEX 01 00:00:00
    TRACK 04 AUDIO
    TITLE "Symphonie Nr. 6 F-dur «Pastorale», Op. 68: IV. Gewitter. Sturm"
    PERFORMER "Philadelphia Orchestra. Riccardo Muti, conductor"
    REM DATE 1987
    INDEX 00 05:52:73
    FILE "04 - Symphonie Nr. 6 - IV. Gewitter. Sturm.flac" WAVE
    INDEX 01 00:00:00
    FILE "05 - Symphonie Nr. 6 - V. Hirtengesang. Frohe und dankbare Gefuehle nach dem Sturm.flac" WAVE
    TRACK 05 AUDIO
    TITLE "Symphonie Nr. 6 F-dur «Pastorale», Op. 68: V. Hirtengesang. Frohe und dankbare Gefühle nach dem Sturm"
    PERFORMER "Philadelphia Orchestra. Riccardo Muti, conductor"
    REM DATE 1987
    INDEX 01 00:00:00
    TRACK 06 AUDIO
    TITLE "Ouvertüre «Leonore» Nr. 3, Op. 72b"
    PERFORMER "Philadelphia Orchestra. Riccardo Muti, conductor"
    REM DATE 1988
    INDEX 00 10:21:56
    FILE "06 - Ouvertuere ''Leonore'' Nr. 3, Op. 72b.flac" WAVE
    INDEX 01 00:00:00

    CD 5: Symphonien Nrn. 7, 8

    TITLE "Ludwig van Beethoven: Symphonien • Ouvertüren"
    PERFORMER "Riccardo Muti"
    REM GENRE Classical
    REM DISCID 600F6408
    REM COMMENT "ExactAudioCopy v1.0b3"
    FILE "01 - Symphonie Nr. 7 - I. Poco sostenuto. - Vivace.flac" WAVE
    TRACK 01 AUDIO
    TITLE "Symphonie Nr. 7 A-dur, Op. 92: I. Poco sostenuto. — Vivace"
    PERFORMER "Philadelphia Orchestra. Riccardo Muti, conductor"
    REM DATE 1988
    PREGAP 00:00:33
    INDEX 01 00:00:00
    TRACK 02 AUDIO
    TITLE "Symphonie Nr. 7 A-dur, Op. 92: II. Allegretto"
    PERFORMER "Philadelphia Orchestra. Riccardo Muti, conductor"
    REM DATE 1988
    INDEX 00 13:17:62
    FILE "02 - Symphonie Nr. 7 - II. Allegretto.flac" WAVE
    INDEX 01 00:00:00
    TRACK 03 AUDIO
    TITLE "Symphonie Nr. 7 A-dur, Op. 92: III. Presto"
    PERFORMER "Philadelphia Orchestra. Riccardo Muti, conductor"
    REM DATE 1988
    INDEX 00 09:00:40
    FILE "03 - Symphonie Nr. 7 - III. Presto.flac" WAVE
    INDEX 01 00:00:00
    TRACK 04 AUDIO
    TITLE "Symphonie Nr. 7 A-dur, Op. 92: IV. Allegro con brio"
    PERFORMER "Philadelphia Orchestra. Riccardo Muti, conductor"
    REM DATE 1988
    INDEX 00 09:38:58
    FILE "04 - Symphonie Nr. 7 - IV. Allegro con brio.flac" WAVE
    INDEX 01 00:00:00
    TRACK 05 AUDIO
    TITLE "Symphonie Nr. 8 F-dur, Op. 93: I. Allegro vivace e con brio"
    PERFORMER "Philadelphia Orchestra. Riccardo Muti, conductor"
    REM DATE 1987
    INDEX 00 08:35:02
    FILE "05 - Symphonie Nr. 8 - I. Allegro vivace e con brio.flac" WAVE
    INDEX 01 00:00:00
    TRACK 06 AUDIO
    TITLE "Symphonie Nr. 8 F-dur, Op. 93: II. Allegretto scherzando"
    PERFORMER "Philadelphia Orchestra. Riccardo Muti, conductor"
    REM DATE 1987
    INDEX 00 08:58:73
    FILE "06 - Symphonie Nr. 8 - II. Allegretto scherzando.flac" WAVE
    INDEX 01 00:00:00
    TRACK 07 AUDIO
    TITLE "Symphonie Nr. 8 F-dur, Op. 93: III. Tempo di Menuetto"
    PERFORMER "Philadelphia Orchestra. Riccardo Muti, conductor"
    REM DATE 1987
    INDEX 00 03:39:63
    FILE "07 - Symphonie Nr. 8 - III. Tempo di Menuetto.flac" WAVE
    INDEX 01 00:00:00
    TRACK 08 AUDIO
    TITLE "Symphonie Nr. 8 F-dur, Op. 93: IV. Allegro vivace"
    PERFORMER "Philadelphia Orchestra. Riccardo Muti, conductor"
    REM DATE 1987
    INDEX 00 04:53:68
    FILE "08 - Symphonie Nr. 8 - IV. Allegro vivace.flac" WAVE
    INDEX 01 00:00:00

    CD 6: Symphonie Nr. 9

    TITLE "Ludwig van Beethoven: Symphonien • Ouvertüren"
    PERFORMER "Riccardo Muti"
    REM GENRE Classical
    REM DISCID 3E10D904
    REM COMMENT "ExactAudioCopy v1.0b3"
    CATALOG 0000000000000
    FILE "01 - Symphonie Nr. 9 - I. Allegro ma non troppo, un poco maestoso.flac" WAVE
    TRACK 01 AUDIO
    TITLE "Symphonie Nr. 9 d-moll, Op. 125: I. Allegro ma non troppo, un poco maestoso"
    PERFORMER "Philadelphia Orchestra. Riccardo Muti, conductor"
    REM DATE 1988
    PREGAP 00:00:33
    INDEX 01 00:00:00
    TRACK 02 AUDIO
    TITLE "Symphonie Nr. 9 d-moll, Op. 125: II. Molto vivace. — Presto"
    PERFORMER "Philadelphia Orchestra. Riccardo Muti, conductor"
    REM DATE 1988
    INDEX 00 16:25:60
    FILE "02 - Symphonie Nr. 9 - II. Molto vivace. - Presto.flac" WAVE
    INDEX 01 00:00:00
    TRACK 03 AUDIO
    TITLE "Symphonie Nr. 9 d-moll, Op. 125: III. Adagio molto e cantabile. — Andante moderato"
    PERFORMER "Philadelphia Orchestra. Riccardo Muti, conductor"
    REM DATE 1988
    INDEX 00 14:42:32
    FILE "03 - Symphonie Nr. 9 - III. Adagio molto e cantabile. - Andante moderato.flac" WAVE
    INDEX 01 00:00:00
    FILE "04 - Symphonie Nr. 9 - IV. Finale. Hymne an die Freude.flac" WAVE
    TRACK 04 AUDIO
    TITLE "Symphonie Nr. 9 d-moll, Op. 125: IV. Finale: Hymne an die Freude"
    PERFORMER "Cheryl Studer, Dolores Ziegler, Peter Seiffert, James Morris, Westminster Choir, Philadelphia Orchestra. Riccardo Muti, conductor"
    REM DATE 1988
    INDEX 01 00:00:00
    -
    Ludwig van Beethoven — каталог раздач на rutracker.orgВсе мои раздачи / All my releases



  • Показать сообщения:    

    Текущее время: 11-Дек 01:22

    Часовой пояс: UTC + 3


    Вы не можете начинать темы
    Вы не можете отвечать на сообщения
    Вы не можете редактировать свои сообщения
    Вы не можете удалять свои сообщения
    Вы не можете голосовать в опросах
    Вы не можете прикреплять файлы к сообщениям
    Вы не можете скачивать файлы