(Opera) Wolf-Ferrari - Sly (Bader, Polaski, Reeh, Haertel - Chor und Orchester der Niedersachsischen Staatsoper Hannover, Maxym) - 1999, APE (image+.cue) lossless


 

[Цитировать]

Ermanno Wolf-Ferrari - Sly, oder Die Legende vom Wiedererweckten Schläfer
Жанр: Opera
Страна-производитель диска: EEC
Год издания диска: 1999
Издатель (лейбл): Arts
Номер по каталогу: 47549-2
Дата записи: 1988
Аудиокодек: APE
Тип рипа: image+.cue
Битрейт аудио: lossless
Продолжительность: 63'20+46'24
Источник: собственный рип
Наличие сканов в содержимом раздачи: да
Треклист:

CD1

1. Akt 1 - Einleitung
2. Akt 1 - Oh, Durst, in deinem Reiche
3. Akt 1 - Halt ! Heilige Johanna der Taverne
4. Akt 1 - Du spielst zu sehr mit meiner Langmut, Dolly
5. Akt 1 - Um ein Lied zu singen Eurer Schönheit
6. Akt 1 - Ein Bär, der angekettet und verliebt war
7. Akt 1 - Oh, wie sie duftet
8. Akt 1 - Ah ! ... so helft ihm doch
9. Akt 1 - Seliger Träumer, ich lasse dich jetzt träumen
10. Akt 2 - Einleitung
11. Akt 2 - Das geschah mir schon öfter
12. Akt 2 - Fürwahr... mein alter beständiger Traum
13. Akt 2 - Ich hab' Euch nie gesehen

CD2

1. Akt 2 - Szene 1 - Versucht, Euch des Vergangenen zu erinnern
2. Akt 2 - Szene 1 - s' ist die Stunde... die Stunde
3. Akt 2 - Szene 1 - Ah! Unser Herr is genesen
4. Akt 2 - Szene 2 - Ehre für seine Gnaden, unsern Herrn
5. Akt 2 - Szene 2 - Oh, Herr, mein Gatte
6. Akt 2 - Szene 2 - Welches tiefe Erbarmen will sich regen?
7. Akt 2 - Szene 2 - Oh Sly, wo steckst du elender Wicht
8. Akt 2 - Szene 2 - Werde Sly!
9. Akt 3 - Hier sind deine Kleider
10. Akt 3 - Und doch... war sie ergriffen
11. Akt 3 - Sly... oh sag es...
Исполнители:
Ermanno Wolf-Ferrari - Sly, oder Die Legende vom Wiedererweckten Schläfer
Opera in 3 Acts
Libretto: Giovacchino Forzano
Sly - Hans-Dieter Bader
Dolly - Deborah Polaski
Der Graf von Westrnoreland - Klaus-Michael Reeh
Mohr - Dantes Diwiak
Indianer - William Fomey
Alter Diener - Sanders Schier
Chinese - Gilbert Dubuc
Artz/Ein Freund des Grafen - Barr Peterson
Chor und Orchester der Niedersächsischen Staatsoper Hannover
(Chorus Master: Bernhard Lang)
Robert Maxym, Conductor

Лог создания рипа

CD1

Exact Audio Copy V1.0 beta 3 from 29. August 2011
EAC extraction logfile from 6. September 2014, 18:30
Wolf-Ferrari / Sly, Maxym CD1
Used drive : TS8XDVDSTRANSCEND Adapter: 1 ID: 1
Read mode : Secure
Utilize accurate stream : Yes
Defeat audio cache : Yes
Make use of C2 pointers : No
Read offset correction : 6
Overread into Lead-In and Lead-Out : No
Fill up missing offset samples with silence : Yes
Delete leading and trailing silent blocks : No
Null samples used in CRC calculations : Yes
Used interface : Native Win32 interface for Win NT & 2000
Used output format : Monkey's Audio Lossless Encoder
Selected bitrate : High Lossless Compression
Quality : High
Add ID3 tag : No
Command line compressor : C:\Program Files (x86)\Exact Audio Copy\MAC\MAC.exe
TOC of the extracted CD
Track | Start | Length | Start sector | End sector
---------------------------------------------------------
1 | 0:00.00 | 4:25.15 | 0 | 19889
2 | 4:25.15 | 5:18.10 | 19890 | 43749
3 | 9:43.25 | 6:59.32 | 43750 | 75206
4 | 16:42.57 | 3:25.53 | 75207 | 90634
5 | 20:08.35 | 6:51.42 | 90635 | 121501
6 | 27:00.02 | 5:14.20 | 121502 | 145071
7 | 32:14.22 | 6:53.50 | 145072 | 176096
8 | 39:07.72 | 2:52.53 | 176097 | 189049
9 | 42:00.50 | 3:17.45 | 189050 | 203869
10 | 45:18.20 | 4:11.40 | 203870 | 222734
11 | 49:29.60 | 5:09.02 | 222735 | 245911
12 | 54:38.62 | 5:32.43 | 245912 | 270854
13 | 60:11.30 | 3:09.42 | 270855 | 285071
Range status and errors
Selected range
Filename D:\EAC\Wolf-Ferrari - Sly, Maxym CD1.wav
Peak level 100.0 %
Extraction speed 3.2 X
Range quality 100.0 %
Test CRC D4E59E7A
Copy CRC D4E59E7A
Copy OK
No errors occurred
AccurateRip summary
Track 1 cannot be verified as accurate (confidence 3) [CDC5D1DB], AccurateRip returned [4BCCEF9B] (AR v2)
Track 2 cannot be verified as accurate (confidence 3) [8646D079], AccurateRip returned [4A13B4B3] (AR v2)
Track 3 cannot be verified as accurate (confidence 2) [546CC953], AccurateRip returned [02BF8F51] (AR v2)
Track 4 cannot be verified as accurate (confidence 3) [BAB4371B], AccurateRip returned [9D4C433C] (AR v2)
Track 5 cannot be verified as accurate (confidence 2) [9BA08EEF], AccurateRip returned [9204CFC6] (AR v2)
Track 6 cannot be verified as accurate (confidence 3) [E91BB86F], AccurateRip returned [71AC7777] (AR v2)
Track 7 cannot be verified as accurate (confidence 3) [9FFBE70D], AccurateRip returned [0673F204] (AR v2)
Track 8 cannot be verified as accurate (confidence 3) [EB57A6D8], AccurateRip returned [3EDEB763] (AR v2)
Track 9 cannot be verified as accurate (confidence 3) [527938FB], AccurateRip returned [1BF5BA67] (AR v2)
Track 10 cannot be verified as accurate (confidence 3) [536D3527], AccurateRip returned [EA8DFCA3] (AR v2)
Track 11 cannot be verified as accurate (confidence 3) [662947DB], AccurateRip returned [87F09E1F] (AR v2)
Track 12 cannot be verified as accurate (confidence 3) [4AB90FAC], AccurateRip returned [CDBED32A] (AR v2)
Track 13 cannot be verified as accurate (confidence 3) [F378EF40], AccurateRip returned [4653E3B6] (AR v2)
No tracks could be verified as accurate
You may have a different pressing from the one(s) in the database
End of status report
---- CUETools DB Plugin V2.1.3
[CTDB TOCID: 0qYdwgCW9ZcKj7GC30Qo2eqdzAg-] disk not present in database, Submit result: unrecognized or virtual drive
==== Log checksum 19A6E3B683238A906DDAF3C5ACAFCE8CB1A92CDEA0F65161622B27C3692413FA ====

CD2

Exact Audio Copy V1.0 beta 3 from 29. August 2011
EAC extraction logfile from 6. September 2014, 18:29
Wolf-Ferrari / Sly, Maxym CD2
Used drive : TSSTcorpCDDVDW SE-208AB Adapter: 1 ID: 0
Read mode : Secure
Utilize accurate stream : Yes
Defeat audio cache : Yes
Make use of C2 pointers : No
Read offset correction : 6
Overread into Lead-In and Lead-Out : No
Fill up missing offset samples with silence : Yes
Delete leading and trailing silent blocks : No
Null samples used in CRC calculations : Yes
Used interface : Native Win32 interface for Win NT & 2000
Used output format : Monkey's Audio Lossless Encoder
Selected bitrate : High Lossless Compression
Quality : High
Add ID3 tag : No
Command line compressor : C:\Program Files (x86)\Exact Audio Copy\MAC\MAC.exe
TOC of the extracted CD
Track | Start | Length | Start sector | End sector
---------------------------------------------------------
1 | 0:00.00 | 3:06.22 | 0 | 13971
2 | 3:06.22 | 3:12.50 | 13972 | 28421
3 | 6:18.72 | 3:28.50 | 28422 | 44071
4 | 9:47.47 | 1:41.03 | 44072 | 51649
5 | 11:28.50 | 6:10.70 | 51650 | 79469
6 | 17:39.45 | 6:08.12 | 79470 | 107081
7 | 23:47.57 | 1:24.48 | 107082 | 113429
8 | 25:12.30 | 0:45.57 | 113430 | 116861
9 | 25:58.12 | 2:58.15 | 116862 | 130226
10 | 28:56.27 | 12:33.05 | 130227 | 186706
11 | 41:29.32 | 4:54.68 | 186707 | 208824
Range status and errors
Selected range
Filename D:\EAC\Wolf-Ferrari - Sly, Maxym CD2.wav
Peak level 100.0 %
Extraction speed 1.8 X
Range quality 100.0 %
Test CRC 58CA64E7
Copy CRC 58CA64E7
Copy OK
No errors occurred
AccurateRip summary
Track 1 cannot be verified as accurate (confidence 3) [10553F8D], AccurateRip returned [8130CCA4] (AR v2)
Track 2 cannot be verified as accurate (confidence 3) [41688772], AccurateRip returned [6E6BF4BF] (AR v2)
Track 3 cannot be verified as accurate (confidence 3) [7EF936FC], AccurateRip returned [EC10A4B5] (AR v2)
Track 4 cannot be verified as accurate (confidence 3) [79FA0258], AccurateRip returned [7AE26F5A] (AR v2)
Track 5 cannot be verified as accurate (confidence 3) [9FECDB52], AccurateRip returned [B700E99B] (AR v2)
Track 6 cannot be verified as accurate (confidence 3) [2ACEA497], AccurateRip returned [B9E9F97B] (AR v2)
Track 7 cannot be verified as accurate (confidence 3) [907F2BE4], AccurateRip returned [F0F3115D] (AR v2)
Track 8 cannot be verified as accurate (confidence 3) [0E831767], AccurateRip returned [19679ABD] (AR v2)
Track 9 cannot be verified as accurate (confidence 3) [F7DAF15A], AccurateRip returned [5FE08163] (AR v2)
Track 10 cannot be verified as accurate (confidence 3) [4C27D744], AccurateRip returned [86892965] (AR v2)
Track 11 cannot be verified as accurate (confidence 3) [E7DCFA76], AccurateRip returned [CCAB9138] (AR v2)
No tracks could be verified as accurate
You may have a different pressing from the one(s) in the database
End of status report
---- CUETools DB Plugin V2.1.3
[CTDB TOCID: qij9Ft2XBtxYAi.TVghwCzeTwvw-] disk not present in database, Submit result: qij9Ft2XBtxYAi.TVghwCzeTwvw- has been uploaded
==== Log checksum 71C4D3933C0EA3A31E10214971871B7788A002C644B3811E79D229302F69C9A3 ====

Содержание индексной карты (.CUE)

CD1

REM GENRE Opera
REM DATE 1988
REM DISCID 9F0ED80D
REM COMMENT "ExactAudioCopy v1.0b3"
PERFORMER "Wolf-Ferrari"
TITLE "Sly, Maxym CD1"
FILE "Wolf-Ferrari - Sly, Maxym CD1.ape" WAVE
TRACK 01 AUDIO
TITLE "Akt 1 - Einleitung"
PERFORMER "Wolf-Ferrari"
INDEX 01 00:00:00
TRACK 02 AUDIO
TITLE "Akt 1 - Oh, Durst, in deinem Reiche"
PERFORMER "Wolf-Ferrari"
INDEX 01 04:25:15
TRACK 03 AUDIO
TITLE "Akt 1 - Halt ! Heilige Johanna der Taverne"
PERFORMER "Wolf-Ferrari"
INDEX 01 09:43:25
TRACK 04 AUDIO
TITLE "Akt 1 - Du spielst zu sehr mit meiner Langmut, Dolly"
PERFORMER "Wolf-Ferrari"
INDEX 01 16:42:57
TRACK 05 AUDIO
TITLE "Akt 1 - Um ein Lied zu singen Eurer Schönheit"
PERFORMER "Wolf-Ferrari"
INDEX 01 20:08:35
TRACK 06 AUDIO
TITLE "Akt 1 - Ein Bär, der angekettet und verliebt war"
PERFORMER "Wolf-Ferrari"
INDEX 01 27:00:02
TRACK 07 AUDIO
TITLE "Akt 1 - Oh, wie sie duftet"
PERFORMER "Wolf-Ferrari"
INDEX 01 32:14:22
TRACK 08 AUDIO
TITLE "Akt 1 - Ah ! ... so helft ihm doch"
PERFORMER "Wolf-Ferrari"
INDEX 01 39:07:72
TRACK 09 AUDIO
TITLE "Akt 1 - Seliger Träumer, ich lasse dich jetzt träumen"
PERFORMER "Wolf-Ferrari"
INDEX 01 42:00:50
TRACK 10 AUDIO
TITLE "Akt 2 - Einleitung"
PERFORMER "Wolf-Ferrari"
INDEX 01 45:18:20
TRACK 11 AUDIO
TITLE "Akt 2 - Das geschah mir schon öfter"
PERFORMER "Wolf-Ferrari"
INDEX 01 49:29:60
TRACK 12 AUDIO
TITLE "Akt 2 - Fürwahr... mein alter beständiger Traum"
PERFORMER "Wolf-Ferrari"
INDEX 01 54:38:62
TRACK 13 AUDIO
TITLE "Akt 2 - Ich hab' Euch nie gesehen"
PERFORMER "Wolf-Ferrari"
INDEX 01 60:11:30

CD2

REM GENRE Opera
REM DATE 1988
REM DISCID 950AE00B
REM COMMENT "ExactAudioCopy v1.0b3"
PERFORMER "Wolf-Ferrari"
TITLE "Sly, Maxym CD2"
FILE "Wolf-Ferrari - Sly, Maxym CD2.ape" WAVE
TRACK 01 AUDIO
TITLE "Akt 2 - Szene 1 - Versucht, Euch des Vergangenen zu erinnern"
PERFORMER "Wolf-Ferrari"
INDEX 01 00:00:00
TRACK 02 AUDIO
TITLE "Akt 2 - Szene 1 - s' ist die Stunde... die Stunde"
PERFORMER "Wolf-Ferrari"
INDEX 01 03:06:22
TRACK 03 AUDIO
TITLE "Akt 2 - Szene 1 - Ah! Unser Herr is genesen"
PERFORMER "Wolf-Ferrari"
INDEX 01 06:18:72
TRACK 04 AUDIO
TITLE "Akt 2 - Szene 2 - Ehre für seine Gnaden, unsern Herrn"
PERFORMER "Wolf-Ferrari"
INDEX 01 09:47:47
TRACK 05 AUDIO
TITLE "Akt 2 - Szene 2 - Oh, Herr, mein Gatte"
PERFORMER "Wolf-Ferrari"
INDEX 01 11:28:50
TRACK 06 AUDIO
TITLE "Akt 2 - Szene 2 - Welches tiefe Erbarmen will sich regen?"
PERFORMER "Wolf-Ferrari"
INDEX 01 17:39:45
TRACK 07 AUDIO
TITLE "Akt 2 - Szene 2 - Oh Sly, wo steckst du elender Wicht"
PERFORMER "Wolf-Ferrari"
INDEX 01 23:47:57
TRACK 08 AUDIO
TITLE "Akt 2 - Szene 2 - Werde Sly !"
PERFORMER "Wolf-Ferrari"
INDEX 01 25:12:30
TRACK 09 AUDIO
TITLE "Akt 3 - Hier sind deine Kleider"
PERFORMER "Wolf-Ferrari"
INDEX 01 25:58:12
TRACK 10 AUDIO
TITLE "Akt 3 - Und doch... war sie ergriffen"
PERFORMER "Wolf-Ferrari"
INDEX 01 28:56:27
TRACK 11 AUDIO
TITLE "Akt 3 - Sly... oh sag es..."
PERFORMER "Wolf-Ferrari"
INDEX 01 41:29:32



Показать сообщения:    

Текущее время: 07-Дек 17:31

Часовой пояс: UTC + 3


Вы не можете начинать темы
Вы не можете отвечать на сообщения
Вы не можете редактировать свои сообщения
Вы не можете удалять свои сообщения
Вы не можете голосовать в опросах
Вы не можете прикреплять файлы к сообщениям
Вы не можете скачивать файлы