(Opera) Wolf-Ferrari - I Quatro Rusteghi (Tadeo, Garazioti, Martino, Pedani, Benelli - Orchestra Del Teatro La Fenice, Bogo) - 1999, APE (image+.cue) lossless


 

[Цитировать]

Ermanno Wolf-Ferrari - I Quatro Rusteghi
Жанр: Opera
Страна-производитель диска: Italy
Год издания диска: 1999
Издатель (лейбл): Mondo Musica
Номер по каталогу: MFOH 10701
Дата записи: 1967
Аудиокодек: APE
Тип рипа: image+.cue
Битрейт аудио: lossless
Продолжительность: 63'23+70'25
Источник: собственный рип
Наличие сканов в содержимом раздачи: да
Треклист:
CD1
Act 1
1. Preludio
2. - 10. Scena I - IX
11. Intermezzo
CD2
Act 2
1. - 8. Scena I - VIII
Act 3
9. - 11. Scena I - III con finale
Исполнители:
Ermanno Wolf-Ferrari - I Quatro Rusteghi
Commedia Musicale in three Acts
Libretto: Giuseppe Pizzolato after Commedia Omonima of Carlo Goldani
Lunardo, Mercante - Giorgio Tadeo
Margarita, sua Seconda Moglie - Rena Garazioti
Luçieta, Figlia di Lunardo - Adriana Martino
Maurizio, Mercante - Paolo Pedani
Filipeto, suo Figlio - Ugo Benelli
Marina, zia di Filipeto - Edda Vincenzi
Simon, Mercante - Alfredo Mariotii
Cançian, Ricco Borghese - Alessandro Maddalena
Felice, sua Moglie - Silvana Zanolli
Orchestra Del Teatro La Fenice
Bruno Bogo

Лог создания рипа

CD1

Exact Audio Copy V1.0 beta 3 from 29. August 2011
EAC extraction logfile from 7. September 2014, 12:15
Wolf-Ferrari / I Quattro Rusteghi, Bogo CD1
Used drive : TS8XDVDSTRANSCEND Adapter: 1 ID: 1
Read mode : Secure
Utilize accurate stream : Yes
Defeat audio cache : Yes
Make use of C2 pointers : No
Read offset correction : 6
Overread into Lead-In and Lead-Out : No
Fill up missing offset samples with silence : Yes
Delete leading and trailing silent blocks : No
Null samples used in CRC calculations : Yes
Used interface : Native Win32 interface for Win NT & 2000
Used output format : Monkey's Audio Lossless Encoder
Selected bitrate : High Lossless Compression
Quality : High
Add ID3 tag : No
Command line compressor : C:\Program Files (x86)\Exact Audio Copy\MAC\MAC.exe
TOC of the extracted CD
Track | Start | Length | Start sector | End sector
---------------------------------------------------------
1 | 0:00.00 | 2:37.38 | 0 | 11812
2 | 2:37.38 | 5:20.32 | 11813 | 35844
3 | 7:57.70 | 11:42.42 | 35845 | 88536
4 | 19:40.37 | 3:09.16 | 88537 | 102727
5 | 22:49.53 | 7:38.43 | 102728 | 137120
6 | 30:28.21 | 7:50.04 | 137121 | 172374
7 | 38:18.25 | 0:54.44 | 172375 | 176468
8 | 39:12.69 | 1:48.66 | 176469 | 184634
9 | 41:01.60 | 11:39.12 | 184635 | 237071
10 | 52:40.72 | 6:06.26 | 237072 | 264547
11 | 58:47.23 | 4:32.65 | 264548 | 285012
Range status and errors
Selected range
Filename D:\EAC\Wolf-Ferrari - I Quattro Rusteghi, Bogo CD1.wav
Peak level 50.4 %
Extraction speed 4.6 X
Range quality 100.0 %
Test CRC E4109B27
Copy CRC E4109B27
Copy OK
No errors occurred
AccurateRip summary
Track 1 accurately ripped (confidence 1) [5900DAA1] (AR v1)
Track 2 accurately ripped (confidence 1) [C37E3E89] (AR v1)
Track 3 accurately ripped (confidence 1) [529A830A] (AR v1)
Track 4 accurately ripped (confidence 1) [C9159239] (AR v1)
Track 5 accurately ripped (confidence 1) [C714DE7B] (AR v1)
Track 6 accurately ripped (confidence 1) [DD3F5FCC] (AR v1)
Track 7 accurately ripped (confidence 1) [BFC016D6] (AR v1)
Track 8 accurately ripped (confidence 1) [AF6A1276] (AR v1)
Track 9 accurately ripped (confidence 1) [EEAD0865] (AR v1)
Track 10 accurately ripped (confidence 1) [45F19D40] (AR v1)
Track 11 accurately ripped (confidence 1) [62E0EE09] (AR v1)
All tracks accurately ripped
End of status report
---- CUETools DB Plugin V2.1.3
[CTDB TOCID: E43G2813iRU67qWmsv2mf4XBu20-] disk not present in database, Submit result: unrecognized or virtual drive
==== Log checksum 61D4A83F5CF5235DF115F28E81CFFE67D00381A7C23EE0165FE38C36C5328585 ====

CD2

Exact Audio Copy V1.0 beta 3 from 29. August 2011
EAC extraction logfile from 7. September 2014, 12:38
Wolf-Ferrari / I Quattro Rusteghi, Bogo CD2
Used drive : TSSTcorpCDDVDW SE-208AB Adapter: 1 ID: 0
Read mode : Secure
Utilize accurate stream : Yes
Defeat audio cache : Yes
Make use of C2 pointers : No
Read offset correction : 6
Overread into Lead-In and Lead-Out : No
Fill up missing offset samples with silence : Yes
Delete leading and trailing silent blocks : No
Null samples used in CRC calculations : Yes
Used interface : Native Win32 interface for Win NT & 2000
Used output format : Monkey's Audio Lossless Encoder
Selected bitrate : High Lossless Compression
Quality : High
Add ID3 tag : No
Command line compressor : C:\Program Files (x86)\Exact Audio Copy\MAC\MAC.exe
TOC of the extracted CD
Track | Start | Length | Start sector | End sector
---------------------------------------------------------
1 | 0:00.00 | 8:48.55 | 0 | 39654
2 | 8:48.55 | 2:03.34 | 39655 | 48913
3 | 10:52.14 | 2:55.36 | 48914 | 62074
4 | 13:47.50 | 6:03.22 | 62075 | 89321
5 | 19:50.72 | 9:44.46 | 89322 | 133167
6 | 29:35.43 | 7:27.04 | 133168 | 166696
7 | 37:02.47 | 3:09.44 | 166697 | 180915
8 | 40:12.16 | 2:59.00 | 180916 | 194340
9 | 43:11.16 | 11:10.12 | 194341 | 244602
10 | 54:21.28 | 8:19.73 | 244603 | 282100
11 | 62:41.26 | 7:43.54 | 282101 | 316879
Range status and errors
Selected range
Filename D:\EAC\Wolf-Ferrari - I Quattro Rusteghi, Bogo CD2.wav
Peak level 50.1 %
Extraction speed 2.0 X
Range quality 100.0 %
Test CRC A78452D1
Copy CRC A78452D1
Copy OK
No errors occurred
AccurateRip summary
Track 1 accurately ripped (confidence 1) [4D740F7F] (AR v1)
Track 2 accurately ripped (confidence 1) [F642593A] (AR v1)
Track 3 accurately ripped (confidence 1) [3654108E] (AR v1)
Track 4 accurately ripped (confidence 1) [2243B7CB] (AR v1)
Track 5 accurately ripped (confidence 1) [BCEB4930] (AR v1)
Track 6 accurately ripped (confidence 1) [830E28FB] (AR v1)
Track 7 accurately ripped (confidence 1) [475D8EEE] (AR v1)
Track 8 accurately ripped (confidence 1) [CF0F0EF0] (AR v1)
Track 9 accurately ripped (confidence 1) [FC1EFB43] (AR v1)
Track 10 accurately ripped (confidence 1) [21A6266A] (AR v1)
Track 11 accurately ripped (confidence 1) [391D14BE] (AR v1)
All tracks accurately ripped
End of status report
---- CUETools DB Plugin V2.1.3
[CTDB TOCID: Ma7T4pyXjAL1fOGbYuxPovsrwa0-] disk not present in database, Submit result: Ma7T4pyXjAL1fOGbYuxPovsrwa0- has been uploaded
==== Log checksum 1C3B93573BA267C7581D4299785324BA797964A968CC967346C828A60AAF7396 ====

Содержание индексной карты (.CUE)

CD1

REM GENRE Opera
REM DATE 1967
REM DISCID 8A0ED80B
REM COMMENT "ExactAudioCopy v1.0b3"
PERFORMER "Wolf-Ferrari"
TITLE "I Quattro Rusteghi, Bogo CD1"
FILE "Wolf-Ferrari - I Quattro Rusteghi, Bogo CD1.ape" WAVE
TRACK 01 AUDIO
TITLE "Act I: Preludio"
PERFORMER "Wolf-Ferrari"
INDEX 01 00:00:00
TRACK 02 AUDIO
TITLE "Scena I"
PERFORMER "Wolf-Ferrari"
INDEX 01 02:37:38
TRACK 03 AUDIO
TITLE "Scena II"
PERFORMER "Wolf-Ferrari"
INDEX 01 07:57:70
TRACK 04 AUDIO
TITLE "Scena III"
PERFORMER "Wolf-Ferrari"
INDEX 01 19:40:37
TRACK 05 AUDIO
TITLE "Scena IV"
PERFORMER "Wolf-Ferrari"
INDEX 01 22:49:53
TRACK 06 AUDIO
TITLE "Scena V"
PERFORMER "Wolf-Ferrari"
INDEX 01 30:28:21
TRACK 07 AUDIO
TITLE "Scena VI"
PERFORMER "Wolf-Ferrari"
INDEX 01 38:18:25
TRACK 08 AUDIO
TITLE "Scena VII"
PERFORMER "Wolf-Ferrari"
INDEX 01 39:12:69
TRACK 09 AUDIO
TITLE "Scena VIIII"
PERFORMER "Wolf-Ferrari"
INDEX 01 41:01:60
TRACK 10 AUDIO
TITLE "Scena IX"
PERFORMER "Wolf-Ferrari"
INDEX 01 52:40:72
TRACK 11 AUDIO
TITLE "Intermezzo"
PERFORMER "Wolf-Ferrari"
INDEX 01 58:47:23

CD2

REM GENRE Opera
REM DATE 1967
REM DISCID 9810810B
REM COMMENT "ExactAudioCopy v1.0b3"
PERFORMER "Wolf-Ferrari"
TITLE "I Quattro Rusteghi, Bogo CD2"
FILE "Wolf-Ferrari - I Quattro Rusteghi, Bogo CD2.ape" WAVE
TRACK 01 AUDIO
TITLE "Act II: Scena I"
PERFORMER "Wolf-Ferrari"
INDEX 01 00:00:00
TRACK 02 AUDIO
TITLE "Scena II"
PERFORMER "Wolf-Ferrari"
INDEX 01 08:48:55
TRACK 03 AUDIO
TITLE "Scena III"
PERFORMER "Wolf-Ferrari"
INDEX 01 10:52:14
TRACK 04 AUDIO
TITLE "Scena IV"
PERFORMER "Wolf-Ferrari"
INDEX 01 13:47:50
TRACK 05 AUDIO
TITLE "Scena V"
PERFORMER "Wolf-Ferrari"
INDEX 01 19:50:72
TRACK 06 AUDIO
TITLE "Scena VI"
PERFORMER "Wolf-Ferrari"
INDEX 01 29:35:43
TRACK 07 AUDIO
TITLE "Scena VII"
PERFORMER "Wolf-Ferrari"
INDEX 01 37:02:47
TRACK 08 AUDIO
TITLE "Scena VIII"
PERFORMER "Wolf-Ferrari"
INDEX 01 40:12:16
TRACK 09 AUDIO
TITLE "Act III: Scena I"
PERFORMER "Wolf-Ferrari"
INDEX 01 43:11:16
TRACK 10 AUDIO
TITLE "Scena II"
PERFORMER "Wolf-Ferrari"
INDEX 01 54:21:28
TRACK 11 AUDIO
TITLE "Scena III"
PERFORMER "Wolf-Ferrari"
INDEX 01 62:41:26



Показать сообщения:    

Текущее время: 04-Дек 04:52

Часовой пояс: UTC + 3


Вы не можете начинать темы
Вы не можете отвечать на сообщения
Вы не можете редактировать свои сообщения
Вы не можете удалять свои сообщения
Вы не можете голосовать в опросах
Вы не можете прикреплять файлы к сообщениям
Вы не можете скачивать файлы