[TR24][SM][OF] Charles Villiers Stanford - Organ Works volume 2 - Simon Nieminski - 2014 (Classical)


Статистика раздачи [Обновить пиров]
Размер:  1024 MB   |    Зарегистрирован:  8 месяцев 15 дней   |    Скачан:  0 раз

Полного источника не было: Никогда

 
   
 
 
 

[Цитировать]

Charles Villiers Stanford (1852-1924)

Формат записи/Источник записи: [TR24][SM][OF]
Наличие водяных знаков: Нет
Издание: RES10130
Год издания/переиздания диска: 2014
Жанр: Classical
Издатель(лейбл): Resonus Limited
Продолжительность: 01:08:00
Наличие сканов в содержимом раздачи: Да
Треклист:
1. Marcia Eroica, Op. 189, No. 2 [5:30]
2. The Angelus, Op. 194, No. 3 * [6:44]
3. Te Deum Laudamus, Fantasia, Op. 116 [8:14]
4. Fantasia (In Festo Omnium Sanctorum), Op. 121, No. 1 [7:17]
5. Idyll, Op. 121, No. 2 [7:31]
6. Prelude in form of a Minuet, Op. 88, No. 1 [5:10]
7. Prelude in form of a Toccata, Op. 88. No. 3 [3:30]
8. Prelude in form of a Pastorale, Op. 88, No. 5 [6:12]
9. Prelude on the ancient melody ‘Jesu dulcis memoriae’ * [4:09]
Organ Sonata No. 1 in F, Op. 149
10. Allegro [4:14]
11. Tempo di menuetto [3:58]
12. Allegro maestoso [5:31]
* world premiere recording
Контейнер: FLAC (*.flac)
Тип рипа: tracks
Разрядность: 24/96
Формат: WAV (flac.ape.wv)
Количество каналов: 2.0
Simon Niemiński organ
https://www.hdtracks.com/charles-villiers-stanford-organ-works-vol-2-

Dynamic Range Meter

foobar2000 1.2.6 / Dynamic Range Meter 1.1.1
log date: 2015-01-28 22:18:32
--------------------------------------------------------------------------------
Analyzed: Simon Nieminski / Charles Villiers Stanford: Organ Works, Vol. 2
--------------------------------------------------------------------------------
DR Peak RMS Duration Track
--------------------------------------------------------------------------------
DR11 -0.91 dB -15.88 dB 5:31 01-Marcia eroica, Op. 189, No. 2
DR12 -9.02 dB -26.47 dB 6:45 02-The Angelus, Op. 194, No. 3
DR11 -0.71 dB -16.44 dB 8:14 03-Te Deum Laudamus Fantasia, Op. 116 No. 1
DR10 -0.76 dB -14.94 dB 7:17 04-Fantasia (In Festo Omnium Sanctorum), Op. 121, No. 1
DR12 -0.70 dB -18.34 dB 7:31 05-Idyll, Op. 121, No. 2
DR11 -10.58 dB -25.47 dB 5:10 06-Prelude in Form of a Minuet, Op. 88, No. 1
DR11 -1.83 dB -18.57 dB 3:30 07-Prelude in Form of a Toccata, Op. 88. No. 3
DR10 -8.66 dB -24.83 dB 6:12 08-Prelude in Form of a Pastorale, Op. 88, No. 5
DR10 -4.47 dB -20.32 dB 4:09 09-Prelude on the Ancient Melody ‘Jesu dulcis memoriae’
DR11 -2.25 dB -18.19 dB 4:14 10-Organ Sonata No. 1 in F Major, Op. 149: I. Allegro
DR12 -2.56 dB -20.43 dB 3:58 11-Organ Sonata No. 1 in F Major, Op. 149: II. Tempo di menuetto
DR10 -1.24 dB -15.63 dB 5:32 12-Organ Sonata No. 1 in F Major, Op. 149: III. Allegro maestoso
--------------------------------------------------------------------------------
Number of tracks: 12
Official DR value: DR11
Samplerate: 96000 Hz
Channels: 2
Bits per sample: 24
Bitrate: 2174 kbps
Codec: FLAC
================================================================================
[teatrix.ru].t20232.torrent 
Торрент: Зарегистрирован [ 2016-03-19 20:42 ] · 1EF088A44B9C87687541A8446C34E0672A0E1F80

Скачать .torrent

Скачать

22 KB

Статус: проверено
Скачан: 0 раз
Размер: 1024 MB
terms.php



Быстрый ответ

Имя:

      
Для отправки сообщений необходимо включить JavaScript
Показать сообщения:    

Текущее время: 03-Дек 20:43

Часовой пояс: UTC + 3


Вы можете начинать темы
Вы можете отвечать на сообщения
Вы не можете редактировать свои сообщения
Вы не можете удалять свои сообщения
Вы не можете голосовать в опросах
Вы не можете прикреплять файлы к сообщениям
Вы можете скачивать файлы