Таинственная повесть (Александр Шувиков) [2014, историко-патриотический, SATRip]


Статистика раздачи [Обновить пиров]
Размер:  771 MB   |    Зарегистрирован:  8 месяцев 16 дней   |    Скачан:  0 раз

Полного источника не было: Никогда

 
   
 
 
 

[Цитировать]

Таинственная повесть
Дата/Год выпуска: 2014
Страна: Россия
Жанр: историко-патриотический
Продолжительность: 4 x ~ 00:25:00
Перевод: Не требуется
Русские субтитры: нет
Оригинальная аудиодорожка: русский
Режиссер: Александр Шувиков
Описание: Я не хочу, чтоб свет узнал мою таинственную повесть. Как я любил, за что страдал, тому судья лишь Бог да совесть! Эти строки Лермонтова – лейтмотив художественно-документального фильма, посвященного жизни и творчеству гениального русского поэта. Авторский проект Игоря Золотусского.
качество: SATRip
формат: AVI
Видео: MPEG4, XviD, 704x400 (16:9), 25.000 fps, 841 - 939 Kbps (0.119 bit/pixel)
Аудио: MP3, 48.0 KHz, 2 ch, 128 Kbps, CBR

Список выпусков/серий

01. Таинственная повесть. Серия 1
02. Таинственная повесть. Серия 2
03. Таинственная повесть. Серия 3
04. Таинственная повесть. Серия 4

MediaInfo

General
Complete name : G:\документалка\Таинственная повесть\01. Таинственная повесть. Серия 1.avi
Format : AVI
Format/Info : Audio Video Interleave
File size : 182 MiB
Duration : 25mn 59s
Overall bit rate : 978 Kbps
Writing application : VirtualDubMod 1.5.10.3 | www.virtualdub-fr.org || (build 2550/release)
Writing library : VirtualDubMod build 2550/release
Video
ID : 0
Format : MPEG-4 Visual
Format profile : Advanced Simple@L5
Format settings, BVOP : 2
Format settings, QPel : No
Format settings, GMC : No warppoints
Format settings, Matrix : Default (H.263)
Codec ID : XVID
Codec ID/Hint : XviD
Duration : 25mn 59s
Bit rate : 841 Kbps
Width : 704 pixels
Height : 400 pixels
Display aspect ratio : 16:9
Frame rate : 25.000 fps
Color space : YUV
Chroma subsampling : 4:2:0
Bit depth : 8 bits
Scan type : Progressive
Compression mode : Lossy
Bits/(Pixel*Frame) : 0.119
Stream size : 156 MiB (86%)
Writing library : XviD 1.2.1 (UTC 2008-12-04)
Audio
ID : 1
Format : MPEG Audio
Format version : Version 1
Format profile : Layer 3
Codec ID : 55
Codec ID/Hint : MP3
Duration : 25mn 59s
Bit rate mode : Constant
Bit rate : 128 Kbps
Channel(s) : 2 channels
Sampling rate : 48.0 KHz
Compression mode : Lossy
Stream size : 23.8 MiB (13%)
Alignment : Aligned on interleaves
Interleave, duration : 40 ms (1.00 video frame)
Interleave, preload duration : 504 ms
Writing library : LAME3.99r
Encoding settings : -m s -V 4 -q 2 -lowpass 17 -b 128

Скриншоты

[teatrix.ru].t20233.torrent 
Торрент: Зарегистрирован [ 2016-03-19 20:42 ] · 6DBE57A81BCC3EFFF6AFC7A2397415BAD6E24FB8

Скачать .torrent

Скачать

16 KB

Статус: проверено
Скачан: 0 раз
Размер: 771 MB
terms.php



Быстрый ответ

Имя:

      
Для отправки сообщений необходимо включить JavaScript
Показать сообщения:    

Текущее время: 05-Дек 01:25

Часовой пояс: UTC + 3


Вы можете начинать темы
Вы можете отвечать на сообщения
Вы не можете редактировать свои сообщения
Вы не можете удалять свои сообщения
Вы не можете голосовать в опросах
Вы не можете прикреплять файлы к сообщениям
Вы можете скачивать файлы