(Classical) Maurice Durufle - Complete Music for Choir and Organ - Adriano Falcioni, The Choir of Leeds Cathedral, Skipton Building Society Camerata, Benjamin Saunders, Daniel Justin, Thomas Leech - 2CD - 2013, FLAC (image+.cue) lossless


Статистика раздачи [Обновить пиров]
Размер:  452 MB   |    Зарегистрирован:  8 месяцев 20 дней   |    Скачан:  0 раз

Полного источника не было: Никогда

 
   
 
 
 

[Цитировать]

Maurice Duruflé - Complete Music for Choir and Organ - Adriano Falcioni, The Choir of Leeds Cathedral, Skipton Building Society Camerata, Benjamin Saunders, Daniel Justin, Thomas Leech
Жанр: Classical
Год издания диска: 2013
Издатель (лейбл): Brilliant Classics
Номер по каталогу: 9264
Дата записи: 2012
Аудиокодек: FLAC
Тип рипа: image+.cue
Битрейт аудио: lossless
Продолжительность: 141:15
Источник: собственный рип
Наличие сканов в содержимом раздачи: да
Треклист:
Maurice Duruflé (1902-1986)

CD1 - Complete Choral Music

[1]-[9] Requiem, Op.9
[10]-[13] Quatre Motets sur des thèmes Grégoriens, Op.10
[14] Notre Père, Op.14
[15] Messe 'Cum jubilo', Op.11
Benjamin Saunders organ
Daniel Justin organ
The Choir of Leeds Cathedral
Skipton Building Society Camerata
Thomas Leech
conductor

CD2 - Complete Organ Music

[1]-[3] Prélude, Adagio et Choral varié sur le thème du 'Veni Creator', Op.4
[4] Prélude sur l’Introït de l’Épiphanie, Op.13
[5] Fugue sur le thème du Carillon des Heures de la cathédrale de Soissons, Op.12
[6] Scherzo, Op.2
[7]-[8] Prélude et Fugue sur le nom d’Alain, Op.7
[9] Méditation, Op. Posth.
[10] Hommage à Jean Gallon
[11]-[13] Suite, Op.5
Исполнители:
Benjamin Saunders organ
Daniel Justin organ
The Choir of Leeds Cathedral
Skipton Building Society Camerata
Thomas Leech
conductor
Adriano Falcioni organ

Лог создания рипа: CD1

Exact Audio Copy V1.0 beta 3 from 29. August 2011
EAC extraction logfile from 19. June 2014, 2:01
The Choir of Leeds Cathedral, Skipton Building Society Camerata, Benjamin Saunders, Daniel Justin, Thomas Leech / Durufle - Complete Music for Choir and Organ - CD1
Used drive : HL-DT-STDVDRAM GSA-4083N Adapter: 1 ID: 0
Read mode : Secure
Utilize accurate stream : Yes
Defeat audio cache : Yes
Make use of C2 pointers : No
Read offset correction : 667
Overread into Lead-In and Lead-Out : No
Fill up missing offset samples with silence : Yes
Delete leading and trailing silent blocks : No
Null samples used in CRC calculations : Yes
Used interface : Native Win32 interface for Win NT & 2000
Used output format : User Defined Encoder
Selected bitrate : 896 kBit/s
Quality : High
Add ID3 tag : No
Command line compressor : C:\Program Files\Exact Audio Copy\Flac\flac.exe
Additional command line options : -V -8 %source%
TOC of the extracted CD
Track | Start | Length | Start sector | End sector
---------------------------------------------------------
1 | 0:00.00 | 3:36.32 | 0 | 16231
2 | 3:36.32 | 3:38.69 | 16232 | 32650
3 | 7:15.26 | 9:00.71 | 32651 | 73221
4 | 16:16.22 | 3:37.08 | 73222 | 89504
5 | 19:53.30 | 2:58.14 | 89505 | 102868
6 | 22:51.44 | 4:05.20 | 102869 | 121263
7 | 26:56.64 | 4:17.08 | 121264 | 140546
8 | 31:13.72 | 5:39.42 | 140547 | 166013
9 | 36:53.39 | 3:20.22 | 166014 | 181035
10 | 40:13.61 | 2:16.73 | 181036 | 191308
11 | 42:30.59 | 2:11.43 | 191309 | 201176
12 | 44:42.27 | 0:54.69 | 201177 | 205295
13 | 45:37.21 | 2:43.47 | 205296 | 217567
14 | 48:20.68 | 1:32.21 | 217568 | 224488
15 | 49:53.14 | 3:40.31 | 224489 | 241019
16 | 53:33.45 | 6:04.72 | 241020 | 268391
17 | 59:38.42 | 4:03.39 | 268392 | 286655
18 | 63:42.06 | 1:56.71 | 286656 | 295426
19 | 65:39.02 | 3:51.74 | 295427 | 312825
Range status and errors
Selected range
Filename J:\New Music\Durufle - Complete Music for Choir and Organ\Durufle - Complete Music for Choir and Organ - CD1.wav
Peak level 100.0 %
Extraction speed 3.5 X
Range quality 100.0 %
Test CRC 0DB533B9
Copy CRC 0DB533B9
Copy OK
No errors occurred
AccurateRip summary
Track 1 not present in database
Track 2 not present in database
Track 3 not present in database
Track 4 not present in database
Track 5 not present in database
Track 6 not present in database
Track 7 not present in database
Track 8 not present in database
Track 9 not present in database
Track 10 not present in database
Track 11 not present in database
Track 12 not present in database
Track 13 not present in database
Track 14 not present in database
Track 15 not present in database
Track 16 not present in database
Track 17 not present in database
Track 18 not present in database
Track 19 not present in database
None of the tracks are present in the AccurateRip database
End of status report
==== Log checksum 40201694238B2487F3C7DF0E6CDB102130C6D18BE70A0B190F382D941F667385 ====

Лог создания рипа: CD2

Exact Audio Copy V1.0 beta 3 from 29. August 2011
EAC extraction logfile from 20. June 2014, 10:19
Adriano Falcioni / Durufle - Complete Music for Choir and Organ - CD2
Used drive : HL-DT-STDVDRAM GSA-4083N Adapter: 1 ID: 0
Read mode : Secure
Utilize accurate stream : Yes
Defeat audio cache : Yes
Make use of C2 pointers : No
Read offset correction : 667
Overread into Lead-In and Lead-Out : No
Fill up missing offset samples with silence : Yes
Delete leading and trailing silent blocks : No
Null samples used in CRC calculations : Yes
Used interface : Native Win32 interface for Win NT & 2000
Used output format : User Defined Encoder
Selected bitrate : 896 kBit/s
Quality : High
Add ID3 tag : No
Command line compressor : C:\Program Files\Exact Audio Copy\Flac\flac.exe
Additional command line options : -V -8 %source%
TOC of the extracted CD
Track | Start | Length | Start sector | End sector
---------------------------------------------------------
1 | 0:00.00 | 7:37.08 | 0 | 34282
2 | 7:37.08 | 6:42.74 | 34283 | 64506
3 | 14:20.07 | 5:40.04 | 64507 | 90010
4 | 20:00.11 | 2:29.13 | 90011 | 101198
5 | 22:29.24 | 3:25.71 | 101199 | 116644
6 | 25:55.20 | 6:15.63 | 116645 | 144832
7 | 32:11.08 | 6:17.25 | 144833 | 173132
8 | 38:28.33 | 4:55.27 | 173133 | 195284
9 | 43:23.60 | 3:47.35 | 195285 | 212344
10 | 47:11.20 | 2:09.20 | 212345 | 222039
11 | 49:20.40 | 8:01.54 | 222040 | 258168
12 | 57:22.19 | 6:00.51 | 258169 | 285219
13 | 63:22.70 | 8:22.04 | 285220 | 322873
Range status and errors
Selected range
Filename J:\New Music\Durufle - Complete Music for Choir and Organ\Durufle - Complete Music for Choir and Organ - CD2.wav
Peak level 95.5 %
Extraction speed 3.5 X
Range quality 100.0 %
Test CRC 1C0BE61B
Copy CRC 1C0BE61B
Copy OK
No errors occurred
AccurateRip summary
Track 1 not present in database
Track 2 not present in database
Track 3 not present in database
Track 4 not present in database
Track 5 not present in database
Track 6 not present in database
Track 7 not present in database
Track 8 not present in database
Track 9 not present in database
Track 10 not present in database
Track 11 not present in database
Track 12 not present in database
Track 13 not present in database
None of the tracks are present in the AccurateRip database
End of status report
==== Log checksum 844565145899C449BD864E3572DBA2A72687027BD0129D744F0F052F6B0AA392 ====
[teatrix.ru].t20234.torrent 
Торрент: Зарегистрирован [ 2016-03-19 20:42 ] · B1CCD2E439D71B89BDA9A1671F94922F54F7B3A5

Скачать .torrent

Скачать

38 KB

Статус: проверено
Скачан: 0 раз
Размер: 452 MB
terms.php



Быстрый ответ

Имя:

      
Для отправки сообщений необходимо включить JavaScript
Показать сообщения:    

Текущее время: 09-Дек 18:32

Часовой пояс: UTC + 3


Вы можете начинать темы
Вы можете отвечать на сообщения
Вы не можете редактировать свои сообщения
Вы не можете удалять свои сообщения
Вы не можете голосовать в опросах
Вы не можете прикреплять файлы к сообщениям
Вы можете скачивать файлы