(Piano) Richter - Artistes Repertoires: Brahms - Piano Concerto No.2 | Beethoven - Piano Concerto No.1 • Piano sonatas Nos.12, 22 und 23 (Munch • Leinsdorf • Рихтер) - 2001, FLAC (image+.cue) lossless


Статистика раздачи [Обновить пиров]
Размер:  580 MB   |    Зарегистрирован:  8 месяцев 18 дней   |    Скачан:  0 раз

Полного источника не было: 2 месяца 26 дней

 
   
 
 
 

[Цитировать]

Richter - Artistes Répertoires
Brahms - Piano Concerto No.2 | Beethoven - Piano Concerto No.1 etc.

Boston Symphony Orchestra - Charles Munch | Chicago Symphony Orchestra - Erich Leinsdorf--- Жанр: Piano
Страна-производитель диска: France
Год издания диска: 2001
Издатель (лейбл): RCA
Дата записи: 1960
Аудиокодек: FLAC
Тип рипа: image+.cue
Битрейт аудио: lossless
Продолжительность: 2:17'12''
Источник: собственный рип
Наличие сканов в содержимом раздачи: да
Треклист:

CD1

[01] Beethoven - Piano Concerto No.1: I. Allegro con brio
[02] II. Largo
[03] III. Rondo: allegro scherzando
Boston Symphony Orchestra
Charles Munch

[04] Beethoven - Piano Sonata No.22: I. In tempo di menuetto
[05] II. Allegretto
[06] Beethoven - Piano Sonata No.12: I. Andante con variazoni
[07] Variation 1
[08] Variation 2
[09] Variation 3
[10] Variation 4
[11] Variation 5
[12] II. Scherzo: allegro molto; trio
[13] III. Marcia funebre sulla morte d'un eroe
[14] IV. Allegro

Лог создания рипа

Exact Audio Copy V1.0 beta 4 from 7. December 2014
EAC extraction logfile from 25. January 2015, 13:13
Sviatoslav Richter / Artistes Repoertoires - S.Richter (CD1)
Used drive : HL-DT-STDVD+-RW GU90N Adapter: 1 ID: 0
Read mode : Secure
Utilize accurate stream : Yes
Defeat audio cache : Yes
Make use of C2 pointers : No
Read offset correction : 102
Overread into Lead-In and Lead-Out : No
Fill up missing offset samples with silence : Yes
Delete leading and trailing silent blocks : No
Null samples used in CRC calculations : Yes
Used interface : Native Win32 interface for Win NT & 2000
Used output format : User Defined Encoder
Selected bitrate : 1024 kBit/s
Quality : High
Add ID3 tag : No
Command line compressor : C:\Program Files (x86)\FLAC\flac.exe
Additional command line options : -T "COMMENT=rip by el coronel" -8 -V %source%
TOC of the extracted CD
Track | Start | Length | Start sector | End sector
---------------------------------------------------------
1 | 0:00.33 | 16:24.71 | 33 | 73903
2 | 16:25.29 | 11:45.08 | 73904 | 126786
3 | 28:10.37 | 8:47.49 | 126787 | 166360
4 | 36:58.11 | 5:06.42 | 166361 | 189352
5 | 42:04.53 | 5:45.37 | 189353 | 215264
6 | 47:50.15 | 1:22.12 | 215265 | 221426
7 | 49:12.27 | 1:03.71 | 221427 | 226222
8 | 50:16.23 | 0:48.30 | 226223 | 229852
9 | 51:04.53 | 1:10.64 | 229853 | 235166
10 | 52:15.42 | 0:51.20 | 235167 | 239011
11 | 53:06.62 | 1:47.22 | 239012 | 247058
12 | 54:54.09 | 2:51.48 | 247059 | 259931
13 | 57:45.57 | 6:10.09 | 259932 | 287690
14 | 63:55.66 | 2:16.05 | 287691 | 297895
Range status and errors
Selected range
Filename F:\Music\Richter - Artistes Repoertoires (Beethoven, Brahms)\CD1.wav
Peak level 100.0 %
Extraction speed 4.4 X
Range quality 100.0 %
Test CRC 796162B1
Copy CRC 796162B1
Copy OK
No errors occurred
AccurateRip summary
Track 1 accurately ripped (confidence 4) [25FCC893] (AR v2)
Track 2 accurately ripped (confidence 4) [1BD93418] (AR v2)
Track 3 accurately ripped (confidence 4) [2E878495] (AR v2)
Track 4 accurately ripped (confidence 4) [F60786CE] (AR v2)
Track 5 accurately ripped (confidence 4) [0DC3CB70] (AR v2)
Track 6 accurately ripped (confidence 4) [00CADF3B] (AR v2)
Track 7 accurately ripped (confidence 4) [DE09F5DD] (AR v2)
Track 8 accurately ripped (confidence 4) [A7CD08A4] (AR v2)
Track 9 accurately ripped (confidence 4) [76FCF230] (AR v2)
Track 10 accurately ripped (confidence 4) [0389DEE8] (AR v2)
Track 11 accurately ripped (confidence 4) [87D283C1] (AR v2)
Track 12 accurately ripped (confidence 4) [93D0F5A5] (AR v2)
Track 13 accurately ripped (confidence 4) [963731F2] (AR v2)
Track 14 accurately ripped (confidence 4) [C9BA0F16] (AR v2)
All tracks accurately ripped
End of status report
---- CUETools DB Plugin V2.1.4
[CTDB TOCID: NJAqRoUQzxGRHDSLdLstI7kmS90-] disk not present in database
Submit result: NJAqRoUQzxGRHDSLdLstI7kmS90- has been uploaded
==== Log checksum FB20285B55AE28128E130EC50646E595839FED6B70D0D62E66E38A713F975ABF ====

Содержание индексной карты (.CUE)

REM GENRE Classical
REM DATE 2001
REM DISCID E20F830E
REM COMMENT "ExactAudioCopy v1.0b4"
PERFORMER "Sviatoslav Richter"
TITLE "Artistes Repoertoires - S.Richter (CD1)"
FILE "CD1.flac" WAVE
TRACK 01 AUDIO
TITLE "Beethoven - Piano Concerto No.1: I. Allegro con brio"
PERFORMER "S.Richter; Boston Symphony Orchestra - C.Munch"
FLAGS DCP
INDEX 00 00:00:00
INDEX 01 00:00:33
TRACK 02 AUDIO
TITLE "II. Largo"
PERFORMER "S.Richter; Boston Symphony Orchestra - C.Munch"
FLAGS DCP
INDEX 00 16:24:05
INDEX 01 16:25:29
TRACK 03 AUDIO
TITLE "III. Rondo: allegro scherzando"
PERFORMER "S.Richter; Boston Symphony Orchestra - C.Munch"
FLAGS DCP
INDEX 00 28:09:08
INDEX 01 28:10:37
TRACK 04 AUDIO
TITLE "Beethoven - Piano Sonata No.22: I. In tempo di menuetto"
PERFORMER "Sviatoslav Richter"
FLAGS DCP
INDEX 00 36:53:05
INDEX 01 36:58:11
TRACK 05 AUDIO
TITLE "II. Allegretto"
PERFORMER "Sviatoslav Richter"
FLAGS DCP
INDEX 01 42:04:53
TRACK 06 AUDIO
TITLE "Beethoven - Piano Sonata No.12: I. Andante con variazoni"
PERFORMER "Sviatoslav Richter"
FLAGS DCP
INDEX 00 47:45:07
INDEX 01 47:50:15
TRACK 07 AUDIO
TITLE "Variation 1"
PERFORMER "Sviatoslav Richter"
FLAGS DCP
INDEX 01 49:12:27
TRACK 08 AUDIO
TITLE "Variation 2"
PERFORMER "Sviatoslav Richter"
FLAGS DCP
INDEX 01 50:16:23
TRACK 09 AUDIO
TITLE "Variation 3"
PERFORMER "Sviatoslav Richter"
FLAGS DCP
INDEX 01 51:04:53
TRACK 10 AUDIO
TITLE "Variation 4"
PERFORMER "Sviatoslav Richter"
FLAGS DCP
INDEX 01 52:15:42
TRACK 11 AUDIO
TITLE "Variation 5"
PERFORMER "Sviatoslav Richter"
FLAGS DCP
INDEX 01 53:06:62
TRACK 12 AUDIO
TITLE "II. Scherzo: allegro molto; trio"
PERFORMER "Sviatoslav Richter"
FLAGS DCP
INDEX 01 54:54:09
TRACK 13 AUDIO
TITLE "III. Marcia funebre sulla morte d'un eroe"
PERFORMER "Sviatoslav Richter"
FLAGS DCP
INDEX 01 57:45:57
TRACK 14 AUDIO
TITLE "IV. Allegro"
PERFORMER "Sviatoslav Richter"
FLAGS DCP
INDEX 01 63:55:66

CD2

[01] Brahms - Piano Concerto No.2: I. Allegro non troppo
[02] II. Allegro appasionato
[03] III. Andante
[04] IV. Allegretto grazioso
Chicago Symphony Orchestra
Erich Leinsdorf

[05] Beethoven - Piano Sonata No.23: I. Allegro assai
[06] II. Andante con motto
[07] III. Allegro ma non troppo

Лог создания рипа

Exact Audio Copy V1.0 beta 4 from 7. December 2014
EAC extraction logfile from 25. January 2015, 14:47
Sviatoslav Richter / Aritstes Repoertoires - S.Richter (CD2)
Used drive : HL-DT-STDVD+-RW GU90N Adapter: 1 ID: 0
Read mode : Secure
Utilize accurate stream : Yes
Defeat audio cache : Yes
Make use of C2 pointers : No
Read offset correction : 102
Overread into Lead-In and Lead-Out : No
Fill up missing offset samples with silence : Yes
Delete leading and trailing silent blocks : No
Null samples used in CRC calculations : Yes
Used interface : Native Win32 interface for Win NT & 2000
Used output format : User Defined Encoder
Selected bitrate : 1024 kBit/s
Quality : High
Add ID3 tag : No
Command line compressor : C:\Program Files (x86)\FLAC\flac.exe
Additional command line options : -T "COMMENT=rip by el coronel" -8 -V %source%
TOC of the extracted CD
Track | Start | Length | Start sector | End sector
---------------------------------------------------------
1 | 0:00.34 | 16:50.49 | 34 | 75832
2 | 16:51.08 | 8:43.59 | 75833 | 115116
3 | 25:34.67 | 12:45.03 | 115117 | 172494
4 | 38:19.70 | 8:55.15 | 172495 | 212634
5 | 47:15.10 | 10:45.40 | 212635 | 261049
6 | 58:00.50 | 5:55.71 | 261050 | 287745
7 | 63:56.46 | 7:04.24 | 287746 | 319569
Range status and errors
Selected range
Filename F:\Music\Richter - Artistes Repoertoires (Beethoven, Brahms)\CD2.wav
Peak level 97.3 %
Extraction speed 4.9 X
Range quality 100.0 %
Test CRC 81FFA328
Copy CRC 81FFA328
Copy OK
No errors occurred
AccurateRip summary
Track 1 accurately ripped (confidence 8) [177D5846] (AR v2)
Track 2 accurately ripped (confidence 8) [988FDD65] (AR v2)
Track 3 accurately ripped (confidence 8) [E4185178] (AR v2)
Track 4 accurately ripped (confidence 8) [B728C7A8] (AR v2)
Track 5 accurately ripped (confidence 9) [DF532A64] (AR v2)
Track 6 accurately ripped (confidence 9) [8DA9D21B] (AR v2)
Track 7 accurately ripped (confidence 9) [418761E7] (AR v2)
All tracks accurately ripped
End of status report
---- CUETools DB Plugin V2.1.4
[CTDB TOCID: W9sBm6Pnej9ZxvspDXxP9I1fgbI-] found
Submit result: W9sBm6Pnej9ZxvspDXxP9I1fgbI- has been confirmed
Track | CTDB Status
1 | (1/1) Accurately ripped
2 | (1/1) Accurately ripped
3 | (1/1) Accurately ripped
4 | (1/1) Accurately ripped
5 | (1/1) Accurately ripped
6 | (1/1) Accurately ripped
7 | (1/1) Accurately ripped
==== Log checksum A30E7E97BE1A1ACD759986A5F345FC87CEC522FB261D26392CD1C490322D3C0E ====

Содержание индексной карты (.CUE)

REM GENRE Classical
REM DATE 2001
REM DISCID 5710A407
REM COMMENT ExactAudioCopy v1.0b4
PERFORMER "Sviatoslav Richter"
TITLE "Aritstes Repoertoires - S.Richter (CD2)"
FILE "CD2.flac" WAVE
TRACK 01 AUDIO
TITLE "Brahms - Piano Concerto No.2: I. Allegro non troppo"
PERFORMER "S.Richter; Chicago Symphony Orchestra - E.Leinsdorf"
INDEX 00 00:00:00
INDEX 01 00:00:34
TRACK 02 AUDIO
TITLE "II. Allegro appasionato"
PERFORMER "S.Richter; Chicago Symphony Orchestra - E.Leinsdorf"
INDEX 00 16:49:26
INDEX 01 16:51:08
TRACK 03 AUDIO
TITLE "III. Andante"
PERFORMER "S.Richter; Chicago Symphony Orchestra - E.Leinsdorf"
INDEX 00 25:31:29
INDEX 01 25:34:67
TRACK 04 AUDIO
TITLE "IV. Allegretto grazioso"
PERFORMER "S.Richter; Chicago Symphony Orchestra - E.Leinsdorf"
INDEX 00 38:18:21
INDEX 01 38:19:70
TRACK 05 AUDIO
TITLE "Beethoven - Piano Sonata No.23: I. Allegro assai"
PERFORMER "Sviatoslav Richter"
INDEX 00 47:09:53
INDEX 01 47:15:10
TRACK 06 AUDIO
TITLE "II. Andante con motto"
PERFORMER "Sviatoslav Richter"
INDEX 00 57:56:47
INDEX 01 58:00:50
TRACK 07 AUDIO
TITLE "III. Allegro ma non troppo"
PERFORMER "Sviatoslav Richter"
INDEX 01 63:56:46
Исполнители:
Святослав Рихтер - фортепиано
[teatrix.ru].t20235.torrent 
Торрент: Зарегистрирован [ 2016-03-19 20:42 ] · 0117A01B33A87403EE91A5235F06CD9A6A26D64C

Скачать .torrent

Скачать

12 KB

Статус: проверено
Скачан: 0 раз
Размер: 580 MB
terms.php



Быстрый ответ

Имя:

      
Для отправки сообщений необходимо включить JavaScript
Показать сообщения:    

Текущее время: 07-Дек 17:29

Часовой пояс: UTC + 3


Вы можете начинать темы
Вы можете отвечать на сообщения
Вы не можете редактировать свои сообщения
Вы не можете удалять свои сообщения
Вы не можете голосовать в опросах
Вы не можете прикреплять файлы к сообщениям
Вы можете скачивать файлы