Искусство (Ольга Соколовская) [2012 г., комедия, TVRip] Московский драматический театр "Человек"


 

[Цитировать]

Искусство Название театра: Московский драматический театр "Человек".
Год выпуска: 2012.
Жанр: комедия.
Продолжительность: 01:24:45.
Режиссер-постановщик: Ольга Соколовская.
Действующие лица и исполнители:
Серж - Кирилл Кяро,
Марк - Олег Кассин,
Иван - Алексей Шахбанов.
О спектакле:
Автор пьесы - французский драматург и прозаик Ясмина Реза.
Спектакль рассказывает о человеке, который живет рядом с тобой. Мы все разные, но эта разница украшает мир, и без нее мы бы не были сами собой.
Один из трех товарищей покупает очень большую, очень дорогую и очень неоднозначную картину. Невинное приобретение приводит к совершенно непредвиденному развитию отношений между тремя мужчинами и, по сути, становится проверкой крепости их дружбы.

Дополнительная информация:
Страна: Россия .
Выпущено: Культура.рф.
Автор пьесы: Ясмина Реза.
Перевод Елены Наумовой.
Сценография: Андрей Тимошенко.
Художник по свету: Владимир Ивакин.
Награды и номинации:
• 2005-2006, Московский театральный фестиваль, Золотой диплом фестиваля в номинации "Дебюты".

О спектакле.
Релиз

Качество видео:...SATRip
Формат:.................AVI
Видео:..720x416 (1.73:1), 25 fps, XviD MPEG-4 ~1634 kbps avg, 0.22 bit/pixel
Аудио:..44.100 kHz, MPEG Layer 3, 2 ch, ~192.00 kbps avg

Отчет Media Info

General
Complete name : Iskusstvo_Moskovskij.dramaticheskij.teatr.Chelovek.2012.XviD.TVRip.fenixclub.avi
Формат : AVI
Формат/Информация : Audio Video Interleave
Размер файла : 1,09 Гбайт
Продолжительность : 1 ч. 24 м.
Общий поток : 1836 Кбит/сек
Библиотека кодирования : VirtualDub build 32842/release
Видео
Идентификатор : 0
Формат : MPEG-4 Visual
Профиль формата : Advanced Simple@L5
Параметр BVOP формата : 2
Параметр QPel формата : Нет
Параметр GMC формата : Без точки перехода
Параметр матрицы формата : Default (H.263)
Режим смешивания : Сжатый битовый поток
Идентификатор кодека : XVID
Идентификатор кодека/Подсказка : XviD
Продолжительность : 1 ч. 24 м.
Битрейт : 1635 Кбит/сек
Ширина : 720 пикселей
Высота : 416 пикселей
Соотношение сторон : 1,731
Частота кадров : 25,000 кадров/сек
Цветовое пространство : YUV
Субдискретизация насыщенности : 4:2:0
Битовая глубина : 8 бит
Тип развёртки : Прогрессивная
Метод сжатия : С потерями
Бит/(Пиксели*Кадры) : 0.218
Размер потока : 991 Мбайт (89%)
Библиотека кодирования : XviD 1.2.1 (UTC 2008-12-04)
Аудио
Идентификатор : 1
Формат : MPEG Audio
Версия формата : Version 1
Профиль формата : Layer 3
Режим : Joint stereo
Расширение режима : MS Stereo
Идентификатор кодека : 55
Идентификатор кодека/Подсказка : MP3
Продолжительность : 1 ч. 24 м.
Вид битрейта : Постоянный
Битрейт : 192 Кбит/сек
Каналы : 2 канала
Частота : 44,1 КГц
Метод сжатия : С потерями
Размер потока : 116 Мбайт (10%)
Выравнивание : Разделение по промежуткам
Продолжительность промежутка : 40 мс. (1,00 видеокадр)
Время предзагрузки промежутка : 500 мс.
Библиотека кодирования : LAME3.98.2

Скриншоты

Альтернативный хост




Показать сообщения:    

Текущее время: 04-Дек 13:17

Часовой пояс: UTC + 3


Вы не можете начинать темы
Вы не можете отвечать на сообщения
Вы не можете редактировать свои сообщения
Вы не можете удалять свои сообщения
Вы не можете голосовать в опросах
Вы не можете прикреплять файлы к сообщениям
Вы не можете скачивать файлы