Лусио / Lucio (Айтор Эррехи / Aitor Arregi, Хосе Мария Гоэнага / Jose Mari Goenaga) [2007, Документальный, DVDRip]


Статистика раздачи [Обновить пиров]
Размер:  1.17 GB   |    Зарегистрирован:  8 месяцев 21 день   |    Скачан:  0 раз

Полного источника не было: Никогда

 
   
 
 
 

[Цитировать]

Лусио / Lucio
Дата/Год выпуска: 2007
Страна: Испания
Жанр: Документальный
Продолжительность: 1:29:31
Перевод: Любительский (многоголосый закадровый)
Русские субтитры: есть
Формат субтитров: softsub (SRT)
Оригинальная аудиодорожка: Испанский, Французский, Английский (подключаемая)
Режиссер: Айтор Эррехи / Aitor Arregi, Хосе Мария Гоэнага / Jose Mari Goenaga
Описание: Документальный фильм об испанском анархисте Лусио Уртубиа. Он выбрал Действие...и победил. Маленький человек оказался на голову выше монстров Системы. Жизнь как фантасмагория воплощенных идеалов Сопротивления. От борьбы с режимом Франко,экспроприаций и контрабандной деятельности- к грандиозному штурму мировой финансовой цитадели.
Тот редкий случай, когда документалистика смотрится с нарастающим интересом, не дающим заскучать воображению пресыщенного голливудскими боевиками обывателя. Ведь на поверку действительность оказывается куда "фантастичнее вымысла".
Доп. информация: Спасибо всем компаньерос по озвучиванию за искренний энтузиазм и понимание.
Сэмпл: http://sendfile.su/1080381
качество: DVDRip
формат: AVI
Видео: XVID, 720х384, 3:2, 1413 Кбит/сек, 29,970 кадров/сек
Аудио: AC-3, 256 Кбит/сек, 44,1 КГц, 2 канала
Аудио 2: MPEG Audio v.1 Layer 3, 44,1 КГц, 192 Кбит/сек, 2 канала, Вид битрейта: Постоянный

MediaInfo

Общее
Полное имя : Lucio.avi
Формат : AVI
Формат/Информация : Audio Video Interleave
Размер файла : 1,05 Гбайт
Продолжительность : 1 ч. 29 м.
Общий поток : 1681 Кбит/сек
Программа кодирования : VirtualDubMod 1.5.10.2 (build 2540/release)
Библиотека кодирования : VirtualDubMod build 2540/release
TCOD : 0
TCDO : 53711991666
Видео
Идентификатор : 0
Формат : MPEG-4 Visual
Профиль формата : Advanced Simple@L5
Параметр BVOP формата : 1
Параметр QPel формата : Нет
Параметр GMC формата : Без точки перехода
Параметр матрицы формата : Выборочная
Идентификатор кодека : XVID
Идентификатор кодека/Подсказка : XviD
Продолжительность : 1 ч. 29 м.
Битрейт : 1413 Кбит/сек
Ширина : 720 пикселей
Высота : 384 пикселя
Соотношение сторон : 3:2
Соотношение сторон в оригинале : 1,85:1
Частота кадров : 29,970 кадров/сек
Цветовое пространство : YUV
Субдискретизация насыщенности : 4:2:0
Битовая глубина : 8 бит
Тип развёртки : Прогрессивная
Метод сжатия : С потерями
Бит/(Пиксели*Кадры) : 0.171
Размер потока : 905 Мбайт (84%)
Библиотека кодирования : XviD 1.2.1 (UTC 2008-12-04)
Аудио
Идентификатор : 1
Формат : AC-3
Формат/Информация : Audio Coding 3
Расширение режима : CM (complete main)
Параметр Endianness формата : Big
Идентификатор кодека : 2000
Продолжительность : 1 ч. 29 м.
Вид битрейта : Постоянный
Битрейт : 256 Кбит/сек
Каналы : 2 канала
Расположение каналов : Front: L R
Частота : 44,1 КГц
Битовая глубина : 16 бит
Метод сжатия : С потерями
Размер потока : 164 Мбайт (15%)
Выравнивание : Соединение по промежуткам
Продолжительность промежутка : 35 мс. (1,04 видеокадр)
Время предзагрузки промежутка : 522 мс.

Скриншоты

[teatrix.ru].t20238.torrent 
Торрент: Зарегистрирован [ 2016-03-19 20:42 ] · D290F3513E71CCD761FFF8926172F7F710CE8145

Скачать .torrent

Скачать

12 KB

Статус: проверено
Скачан: 0 раз
Размер: 1.17 GB
terms.php



Быстрый ответ

Имя:

      
Для отправки сообщений необходимо включить JavaScript
Показать сообщения:    

Текущее время: 10-Дек 19:42

Часовой пояс: UTC + 3


Вы можете начинать темы
Вы можете отвечать на сообщения
Вы не можете редактировать свои сообщения
Вы не можете удалять свои сообщения
Вы не можете голосовать в опросах
Вы не можете прикреплять файлы к сообщениям
Вы можете скачивать файлы