Безумие Бориса Андреева (Сергей Холодный) [2005, биография, IPTVRip]


Статистика раздачи [Обновить пиров]
Размер:  543 MB   |    Зарегистрирован:  8 месяцев 18 дней   |    Скачан:  0 раз

Полного источника не было: Никогда

 
   
 
 
 

[Цитировать]

Безумие Бориса Андреева
Дата/Год выпуска: 2005
Страна: Россия
Жанр: биография
Продолжительность: 00:43:43
Перевод: Не требуется
Русские субтитры: нет
Оригинальная аудиодорожка: русский
Режиссер: Сергей Холодный
Телеканал: ДовериеОписание: Слава Бориса Федоровича Андреева была поистине всенародной. Андреева боготворили, стремились подражать и прощали даже то, что не сошло бы с рук любому другому. Только Андреев мог устроиться на ночлег в витрине мебельного магазина, набить морду генералу НКВД и выбросить в море милиционера. Окружающие считали его лихачом и грубияном, но очень немногие знали, каким он был трогательным и глубоко ранимым человеком. "У меня нет любимых ролей! Все как одну – НЕНАВИЖУ", - с горечью запишет Андреев в своем личном дневнике незадолго до смерти. Всю жизнь этому могучему актеру доставались роли народных героев – бесшабашных трактористов и шахтеров, отважных военных и грозных силачей. А он грезил лишь об одном - играть в трагедиях Шекспира...Сэмпл: https://www.sendspace.com/file/tyluwn
качество: IPTVRip (исходник в формате MPEG-2)
формат: AVI
Видео: Xvid 720x400 (16:9) 25fps ~1536kbps
Аудио: MP3 48000Hz stereo (2ch) 192kbps

MediaInfo

General
Complete name : I:\Мои раздачи\Безумие Бориса Андреева.avi
Format : AVI
Format/Info : Audio Video Interleave
File size : 543 MiB
Duration : 43mn 43s
Overall bit rate : 1 736 Kbps
Video
ID : 0
Format : MPEG-4 Visual
Format profile : Advanced Simple@L5
Format settings, BVOP : Yes
Format settings, QPel : No
Format settings, GMC : No warppoints
Format settings, Matrix : Default (H.263)
Codec ID : XVID
Codec ID/Hint : XviD
Duration : 43mn 43s
Bit rate : 1 534 Kbps
Width : 720 pixels
Height : 400 pixels
Display aspect ratio : 16:9
Frame rate : 25.000 fps
Color space : YUV
Chroma subsampling : 4:2:0
Bit depth : 8 bits
Scan type : Progressive
Compression mode : Lossy
Bits/(Pixel*Frame) : 0.213
Stream size : 480 MiB (88%)
Writing library : XviD 64
Audio
ID : 1
Format : MPEG Audio
Format version : Version 1
Format profile : Layer 3
Mode : Joint stereo
Mode extension : MS Stereo
Codec ID : 55
Codec ID/Hint : MP3
Duration : 43mn 43s
Bit rate mode : Constant
Bit rate : 192 Kbps
Channel(s) : 2 channels
Sampling rate : 48.0 KHz
Compression mode : Lossy
Stream size : 60.1 MiB (11%)
Alignment : Split accross interleaves
Interleave, duration : 40 ms (1.00 video frame)
Interleave, preload duration : 500 ms

Скриншоты

[teatrix.ru].t20240.torrent 
Торрент: Зарегистрирован [ 2016-03-19 20:42 ] · ACF3BB680D99CF6781DF1CC697CFFEFF3627A590

Скачать .torrent

Скачать

11 KB

Статус: проверено
Скачан: 0 раз
Размер: 543 MB
terms.php



Быстрый ответ

Имя:

      
Для отправки сообщений необходимо включить JavaScript
Показать сообщения:    

Текущее время: 07-Дек 17:30

Часовой пояс: UTC + 3


Вы можете начинать темы
Вы можете отвечать на сообщения
Вы не можете редактировать свои сообщения
Вы не можете удалять свои сообщения
Вы не можете голосовать в опросах
Вы не можете прикреплять файлы к сообщениям
Вы можете скачивать файлы