(Opera) Sabine Passow - Portrait • Wagner • Dvorak • von Weber • Handel • Smetana • Чайковский (Stuttgarter Philharmoniker, Anguelov) - 1999, APE (image+.cue) lossless


 

[Цитировать]

Arte Nova Voices - Sabine Passow, soprano
Жанр: Opera
Страна-производитель диска: EU
Год издания диска: 1999
Издатель (лейбл): Arte Nova Classics
Номер по каталогу: 74321 67516 2
Дата записи: 1999
Аудиокодек: APE
Тип рипа: image+.cue
Битрейт аудио: lossless
Продолжительность: 61'14
Источник: собственный рип
Наличие сканов в содержимом раздачи: да
Треклист:
Richard Wagner (1813-1883)
[01] Tannhäuser: "Dich teu're Halle grüss' ich wieder"
Antonin Dvorák (1841-1904)
[02] Rusalka: "Silberner Mond"
Carl-Maria von Weber (1786-1826)
[03] Der Freischütz: "Wie nahte mir der Schlummer"
[04] Der Freischütz: Kavatine: "... und ob die Wolke sie verhülle"
Georg Friedrich Händel (1685-1759)
[05] lulius Caesar in Ägypten: "lhr Augen wie Sterne"
[06] Julius Caesar in Ägypten: "Schon leuchtet wie ein Stern"
Bedrich Smetana (1824-1884)
[07] Die verkaufte Braut: Furiant (Dance)
[08] Die verkaufte 8raut: "Oh, tut das weh"
Peter lIyich Tchaikowsky (1840-1893)
[09] Pique Dame: Introduction
[10] Pique Dame: 'Woher nur diese Trönen"
Richard Wagner (1813-1883)
[11] Tannhäuser: "Allmächt'ge Jungfrau, hör' mein Flehen"
Исполнители:
Sabine Passow, soprano
Stuttgarter Philharmoniker
Ivan Anguélov

Лог создания рипа

Exact Audio Copy V1.0 beta 3 from 29. August 2011
EAC extraction logfile from 8. January 2015, 16:57
Sabine Passow / Portrait - Stuttgarter Philharmoniker, Anguélov
Used drive : TS8XDVDSTRANSCEND Adapter: 1 ID: 1
Read mode : Secure
Utilize accurate stream : Yes
Defeat audio cache : Yes
Make use of C2 pointers : No
Read offset correction : 6
Overread into Lead-In and Lead-Out : No
Fill up missing offset samples with silence : Yes
Delete leading and trailing silent blocks : No
Null samples used in CRC calculations : Yes
Used interface : Native Win32 interface for Win NT & 2000
Used output format : Monkey's Audio Lossless Encoder
Selected bitrate : High Lossless Compression
Quality : High
Add ID3 tag : Yes
Command line compressor : C:\Program Files (x86)\Exact Audio Copy\MAC\MAC.exe
TOC of the extracted CD
Track | Start | Length | Start sector | End sector
---------------------------------------------------------
1 | 0:00.32 | 5:00.25 | 32 | 22556
2 | 5:00.57 | 6:45.50 | 22557 | 52981
3 | 11:46.32 | 8:06.50 | 52982 | 89481
4 | 19:53.07 | 5:27.50 | 89482 | 114056
5 | 25:20.57 | 5:05.50 | 114057 | 136981
6 | 30:26.32 | 5:12.00 | 136982 | 160381
7 | 35:38.32 | 2:07.38 | 160382 | 169944
8 | 37:45.70 | 6:06.37 | 169945 | 197431
9 | 43:52.32 | 4:10.38 | 197432 | 216219
10 | 48:02.70 | 5:23.37 | 216220 | 240481
11 | 53:26.32 | 7:49.38 | 240482 | 275694
Range status and errors
Selected range
Filename D:\EAC\Sabine Passow - Portrait - Stuttgarter Philharmoniker, Anguélov.wav
Peak level 99.0 %
Extraction speed 2.0 X
Range quality 99.9 %
Test CRC D77D98B2
Copy CRC D77D98B2
Copy OK
No errors occurred
AccurateRip summary
Track 1 accurately ripped (confidence 2) [01C44C82] (AR v1)
Track 2 accurately ripped (confidence 2) [F5D94E2D] (AR v1)
Track 3 accurately ripped (confidence 2) [406575EB] (AR v1)
Track 4 accurately ripped (confidence 2) [9365262F] (AR v1)
Track 5 accurately ripped (confidence 2) [D92F1970] (AR v1)
Track 6 accurately ripped (confidence 2) [5A9DFA86] (AR v1)
Track 7 accurately ripped (confidence 2) [7A1F3528] (AR v1)
Track 8 accurately ripped (confidence 2) [5CD7A026] (AR v1)
Track 9 accurately ripped (confidence 2) [B7EBF1CE] (AR v1)
Track 10 accurately ripped (confidence 2) [235F108B] (AR v1)
Track 11 accurately ripped (confidence 2) [854C194D] (AR v1)
All tracks accurately ripped
End of status report
---- CUETools DB Plugin V2.1.3
[CTDB TOCID: mx0cRHW3eXayImMPLOsJFumvYS4-] disk not present in database, Submit result: discs with pregaps not supported in this protocol version
==== Log checksum 996B0303E841924DB99C6352F8418AEEBFC6B6F0943DA2E27AB3AD17B998302C ====

Содержание индексной карты (.CUE)

REM GENRE Oper
REM DATE 1999
REM DISCID 8D0E5B0B
REM COMMENT "ExactAudioCopy v1.0b3"
PERFORMER "Sabine Passow"
TITLE "Portrait - Stuttgarter Philharmoniker, Anguélov"
FILE "Sabine Passow - Portrait - Stuttgarter Philharmoniker, Anguélov.ape" WAVE
TRACK 01 AUDIO
TITLE "Wagner - Tannhäuser - Dich teu're Halle grüß' ich wieder"
PERFORMER "Sabine Passow, Stuttgarter Philharmoniker, Cond. Ivan Anguélov"
INDEX 00 00:00:00
INDEX 01 00:00:32
TRACK 02 AUDIO
TITLE "Dvorak - Rusalka - Silberner Mond"
PERFORMER "Sabine Passow, Stuttgarter Philharmoniker, Cond. Ivan Anguélov"
INDEX 00 04:57:57
INDEX 01 05:00:57
TRACK 03 AUDIO
TITLE "Weber - Der Freischütz - Wie nahte mir der Schlummer"
PERFORMER "Sabine Passow, Stuttgarter Philharmoniker, Cond. Ivan Anguélov"
INDEX 00 11:42:70
INDEX 01 11:46:32
TRACK 04 AUDIO
TITLE "Weber - Der Freischütz - ... und ob die Wolke sie verhülle"
PERFORMER "Sabine Passow, Stuttgarter Philharmoniker, Cond. Ivan Anguélov"
INDEX 00 19:49:07
INDEX 01 19:53:07
TRACK 05 AUDIO
TITLE "Händel - Julius Caesar in Ägypten - Ihr Augen wie Sterne"
PERFORMER "Sabine Passow, Stuttgarter Philharmoniker, Cond. Ivan Anguélov"
INDEX 00 25:17:57
INDEX 01 25:20:57
TRACK 06 AUDIO
TITLE "Händel - Julius Caesar in Ägypten - Schon leuchtet wie ein Stern"
PERFORMER "Sabine Passow, Stuttgarter Philharmoniker, Cond. Ivan Anguélov"
INDEX 00 30:24:20
INDEX 01 30:26:32
TRACK 07 AUDIO
TITLE "Smetana - Die verkaufte Braut - Furiant (Dance)"
PERFORMER "Sabine Passow, Stuttgarter Philharmoniker, Cond. Ivan Anguélov"
INDEX 00 35:36:07
INDEX 01 35:38:32
TRACK 08 AUDIO
TITLE "Smetana - Die verkaufte Braut - Oh, tut das weh"
PERFORMER "Sabine Passow, Stuttgarter Philharmoniker, Cond. Ivan Anguélov"
INDEX 00 37:44:20
INDEX 01 37:45:70
TRACK 09 AUDIO
TITLE "Tchaikovsky - Pique Dame - Introduction"
PERFORMER "Sabine Passow, Stuttgarter Philharmoniker, Cond. Ivan Anguélov"
INDEX 00 43:48:32
INDEX 01 43:52:32
TRACK 10 AUDIO
TITLE "Tchaikovsky - Pique Dame - Woher nur diese Tränen"
PERFORMER "Sabine Passow, Stuttgarter Philharmoniker, Cond. Ivan Anguélov"
INDEX 00 48:00:45
INDEX 01 48:02:70
TRACK 11 AUDIO
TITLE "Wagner - Tannhäuser - Allmächt'ge Jungfrau, hör' mein Flehen"
PERFORMER "Sabine Passow, Stuttgarter Philharmoniker, Cond. Ivan Anguélov"
INDEX 00 53:24:07
INDEX 01 53:26:32



Показать сообщения:    

Текущее время: 07-Дек 17:30

Часовой пояс: UTC + 3


Вы не можете начинать темы
Вы не можете отвечать на сообщения
Вы не можете редактировать свои сообщения
Вы не можете удалять свои сообщения
Вы не можете голосовать в опросах
Вы не можете прикреплять файлы к сообщениям
Вы не можете скачивать файлы