(Opera) Oliver Widmer - Portrait • Mozart • Korngold • Lorzing • Wagner • Gounod • Donizetti • Rossini (Hungarian State Symphony Orchestra, Schultsz) - 1999, APE (image+.cue) lossless


 

[Цитировать]

Arte Nova Voices - Oliver Widmer, baritone
Жанр: Opera
Страна-производитель диска: EU
Год издания диска: 1999
Издатель (лейбл): Arte Nova Classics
Номер по каталогу: 74321 67508 2
Дата записи: 1998
Аудиокодек: APE
Тип рипа: image+.cue
Битрейт аудио: lossless
Продолжительность: 51'18
Источник: собственный рип
Наличие сканов в содержимом раздачи: да
Треклист:
Wolfgang Amadeus Mozart (1756-1791)
[01] Cosi fan tutte: "Rivolgete à lui 10 sguordo"
[02] Zauberflöte: "Der Vogelfänger bin ich ja"
[03] Zauberflöte: "Ein Mädchen oder Weibchen"
[04] Le Nozze di Figaro: "Hai già vinta la cousa"
Erich Wolfgang Korngold (1897-1957)
[05] Die tote Stadt: "Mein Sehnen, mein Wähnen".
Albert Lortzing (1801-1851)
[06] Der Wildschütz: "Wie freundlich strahlt die holde Morgensonne"
[07] Zar und Zimmermann: "Sonst spielt' ich mit Zepter"
Richard Wagner (1813-1883)
[08] Tannhäuser: "Wie Todesahnung"
Charles François Gounod (1818-1893)
[09] Roméo et Juliefte: "Mab, la reine des mensonges"
[10] Faust: "Avant de quitter ces lieux"
Gaetano Donizetti (1797-1848)
[11] Don Pasquale: "Bella siccome un angelo"
Gioacchino Rossini (1792-1868)
[12] Il Barbiere di Siviglia: "Largo al faclotum della città"
Исполнители:
Oliver Widmer, baritone
Hungarian State Symphony Orchestra
Jan Schultsz

Лог создания рипа

Exact Audio Copy V1.0 beta 3 from 29. August 2011
EAC extraction logfile from 8. January 2015, 17:28
Oliver Widmer / Portrait - Hungarian S.O., Schultsz
Used drive : TSSTcorpCDDVDW SE-208AB Adapter: 1 ID: 0
Read mode : Secure
Utilize accurate stream : Yes
Defeat audio cache : Yes
Make use of C2 pointers : No
Read offset correction : 6
Overread into Lead-In and Lead-Out : No
Fill up missing offset samples with silence : Yes
Delete leading and trailing silent blocks : No
Null samples used in CRC calculations : Yes
Used interface : Native Win32 interface for Win NT & 2000
Used output format : Monkey's Audio Lossless Encoder
Selected bitrate : High Lossless Compression
Quality : High
Add ID3 tag : Yes
Command line compressor : C:\Program Files (x86)\Exact Audio Copy\MAC\MAC.exe
TOC of the extracted CD
Track | Start | Length | Start sector | End sector
---------------------------------------------------------
1 | 0:00.00 | 4:43.67 | 0 | 21291
2 | 4:43.67 | 2:50.05 | 21292 | 34046
3 | 7:33.72 | 4:11.58 | 34047 | 52929
4 | 11:45.55 | 4:15.32 | 52930 | 72086
5 | 16:01.12 | 4:15.50 | 72087 | 91261
6 | 20:16.62 | 6:57.60 | 91262 | 122596
7 | 27:14.47 | 4:51.58 | 122597 | 144479
8 | 32:06.30 | 5:36.72 | 144480 | 169751
9 | 37:43.27 | 2:30.60 | 169752 | 181061
10 | 40:14.12 | 3:45.30 | 181062 | 197966
11 | 43:59.42 | 2:46.63 | 197967 | 210479
12 | 46:46.30 | 4:30.02 | 210480 | 230731
Range status and errors
Selected range
Filename D:\EAC\Oliver Widmer - Portrait - Hungarian S.O., Schultsz.wav
Peak level 96.1 %
Extraction speed 1.9 X
Range quality 100.0 %
Test CRC 810B8981
Copy CRC 810B8981
Copy OK
No errors occurred
AccurateRip summary
Track 1 accurately ripped (confidence 2) [BCFDEAA2] (AR v1)
Track 2 accurately ripped (confidence 2) [03EAD229] (AR v1)
Track 3 accurately ripped (confidence 2) [2D63A494] (AR v1)
Track 4 accurately ripped (confidence 2) [D65350B7] (AR v1)
Track 5 accurately ripped (confidence 2) [E710DD27] (AR v1)
Track 6 accurately ripped (confidence 2) [39644362] (AR v1)
Track 7 accurately ripped (confidence 2) [50F7FD5A] (AR v1)
Track 8 accurately ripped (confidence 2) [7B83E2D4] (AR v1)
Track 9 accurately ripped (confidence 2) [A89B05A7] (AR v1)
Track 10 accurately ripped (confidence 2) [3297E8B7] (AR v1)
Track 11 accurately ripped (confidence 2) [03020487] (AR v1)
Track 12 accurately ripped (confidence 2) [E05E551C] (AR v1)
All tracks accurately ripped
End of status report
---- CUETools DB Plugin V2.1.3
[CTDB TOCID: e7psf9a3Ks1ervNh6XwU939vjdk-] found, Submit result: e7psf9a3Ks1ervNh6XwU939vjdk- has been confirmed
[cc234d1a] (1/1) Accurately ripped
==== Log checksum FC287CD67304DC75AED321EF1D472AFA01B70ED655BF3434F620F7169A33BC1C ====

Содержание индексной карты (.CUE)

REM GENRE Opera
REM DATE 1998
REM DISCID AA0C040C
REM COMMENT "ExactAudioCopy v1.0b3"
PERFORMER "Oliver Widmer"
TITLE "Portrait - Hungarian S.O., Schultsz"
FILE "Oliver Widmer - Portrait - Hungarian S.O., Schultsz.ape" WAVE
TRACK 01 AUDIO
TITLE "Mozart - Cosi fan tutte 'Rivolgete à lui lo sguardo'"
PERFORMER "Oliver Widmer"
INDEX 01 00:00:00
TRACK 02 AUDIO
TITLE "Mozart - Zauberflöte 'Der Vogelfänger bin ich ja'"
PERFORMER "Oliver Widmer"
INDEX 00 04:37:62
INDEX 01 04:43:67
TRACK 03 AUDIO
TITLE "Mozart - Zauberflöte 'Ein Mädchen oder Weibchen'"
PERFORMER "Oliver Widmer"
INDEX 00 07:29:35
INDEX 01 07:33:72
TRACK 04 AUDIO
TITLE "Mozart - Le Nozze di Figaro 'Hai già vinta la cousa'"
PERFORMER "Oliver Widmer"
INDEX 00 11:40:65
INDEX 01 11:45:55
TRACK 05 AUDIO
TITLE "Korngold - Die tote Stadt 'Mein Sehnen, mein wähnen'"
PERFORMER "Oliver Widmer"
INDEX 00 15:56:42
INDEX 01 16:01:12
TRACK 06 AUDIO
TITLE "Lortzing - Der Wildschütz 'Wie freunlich strahlt die holde Morgensonne'"
PERFORMER "Oliver Widmer"
INDEX 00 20:13:07
INDEX 01 20:16:62
TRACK 07 AUDIO
TITLE "Lortzing - Zar und Zimmermann 'Sonst spielt'ich mit Zepter'"
PERFORMER "Oliver Widmer"
INDEX 00 27:11:15
INDEX 01 27:14:47
TRACK 08 AUDIO
TITLE "Wagner - Tannhäuser 'Wie Todesahnung'"
PERFORMER "Oliver Widmer"
INDEX 00 32:01:07
INDEX 01 32:06:30
TRACK 09 AUDIO
TITLE "Gounod - Roméo et Juliette 'Mab, la reine des mensonges'"
PERFORMER "Oliver Widmer"
INDEX 00 37:39:70
INDEX 01 37:43:27
TRACK 10 AUDIO
TITLE "Gounod - Faust 'Avant de quitter ces lieux'"
PERFORMER "Oliver Widmer"
INDEX 00 40:10:27
INDEX 01 40:14:12
TRACK 11 AUDIO
TITLE "Donizetti - Don Pasquale 'Bella siccome un angelo'"
PERFORMER "Oliver Widmer"
INDEX 00 43:53:70
INDEX 01 43:59:42
TRACK 12 AUDIO
TITLE "Rossini - Il Barbiere di Siviglia 'Largo al factotem della città'"
PERFORMER "Oliver Widmer"
INDEX 00 46:41:17
INDEX 01 46:46:30



Показать сообщения:    

Текущее время: 10-Дек 17:45

Часовой пояс: UTC + 3


Вы не можете начинать темы
Вы не можете отвечать на сообщения
Вы не можете редактировать свои сообщения
Вы не можете удалять свои сообщения
Вы не можете голосовать в опросах
Вы не можете прикреплять файлы к сообщениям
Вы не можете скачивать файлы