(Vocal) Gustav Mahler - »Lieder eines fahrenden Gesellen« (J.Metternich • L.Ludwig) | »Des Knaben Wunderhorn« (L.Sydney • A.Poell • F.Prohaska) - 2002, FLAC (image+.cue) lossless


 

[Цитировать]

Gustav Mahler
»Lieder eines fahrenden Gesellen« | »Des Knaben Wunderhorn«
J.Metternich • L.Ludwig | L.Sydney • A.Poell • F.Prohaska--- Жанр: Vocal
Страна-производитель диска: Austria
Год издания диска: 2002
Издатель (лейбл): Preiser
Дата записи: 1950/51
Аудиокодек: FLAC
Тип рипа: image+.cue
Битрейт аудио: lossless
Продолжительность: 67'50''
Источник: собственный рип
Наличие сканов в содержимом раздачи: да
Треклист:
[01] »Lieder eines fahrenden Gesellen« - Wenn mein Schatz Hochzeit macht
[02] Ging heut morgens über's Feld
[03] Ich hab ein gluhend Messer
[04] Die zwei blauen Augen von meinem Schatz
[05] »Des Knaben Wunderhorn« - Revelge
[06] Das irdische Leben
[07] Lob des hohen Verstandes
[08] Rheinlegendchen
[09] Der Schildwachte Nachtlied
[10] Wer hat dies Liedlein erdacht
[11] Verlorne Muh
[12] Der Tamboursg'sell
[13] Trost im Unglück
[14] Wo die schönen Trompeten blasen
[15] Des Antonius von Padua Fischpredigt
[16] Lied des Verfolgten im Turm
[17] Urlicht
Исполнители:
Josef Metternich, bariton [1-4]
Radio-Symphonie-Orchester Berlin (RIAS) - Leopold Ludwig [1-4]
Lorna Sydney, mezzosopran [5-17]
Alfred Poell, bariton [5-17]
Wiener Staatsopernorchester - Felix Prohaska [5-17]-

Лог создания рипа

Exact Audio Copy V1.0 beta 3 from 29. August 2011
EAC extraction logfile from 12. February 2014, 21:39
J.Metternich - L.Ludwig | L.Sydney - A.Poell - F.Prohaska / G.Mahler - Lieder eines fahrenden Gesellen; Des Knaben Wunderhorn
Used drive : COMPAQ CD-ROM LTN403 Adapter: 0 ID: 0
Read mode : Secure
Utilize accurate stream : Yes
Defeat audio cache : Yes
Make use of C2 pointers : No
Read offset correction : -1164
Overread into Lead-In and Lead-Out : No
Fill up missing offset samples with silence : Yes
Delete leading and trailing silent blocks : No
Null samples used in CRC calculations : Yes
Used interface : Native Win32 interface for Win NT & 2000
Used output format : User Defined Encoder
Selected bitrate : 1024 kBit/s
Quality : High
Add ID3 tag : No
Command line compressor : C:\Program Files\FLAC\flac.exe
Additional command line options : -T"COMMENT=rip by el coronel" -8 -V %source%
TOC of the extracted CD
Track | Start | Length | Start sector | End sector
---------------------------------------------------------
1 | 0:00.00 | 4:05.57 | 0 | 18431
2 | 4:05.57 | 4:01.48 | 18432 | 36554
3 | 8:07.30 | 2:55.50 | 36555 | 49729
4 | 11:03.05 | 4:51.07 | 49730 | 71561
5 | 15:54.12 | 6:44.23 | 71562 | 101884
6 | 22:38.35 | 3:03.02 | 101885 | 115611
7 | 25:41.37 | 2:23.13 | 115612 | 126349
8 | 28:04.50 | 3:18.22 | 126350 | 141221
9 | 31:22.72 | 5:07.28 | 141222 | 164274
10 | 36:30.25 | 2:09.55 | 164275 | 174004
11 | 38:40.05 | 2:32.70 | 174005 | 185474
12 | 41:13.00 | 4:52.22 | 185475 | 207396
13 | 46:05.22 | 2:13.15 | 207397 | 217386
14 | 48:18.37 | 6:18.68 | 217387 | 245804
15 | 54:37.30 | 4:13.57 | 245805 | 264836
16 | 58:51.12 | 3:55.70 | 264837 | 282531
17 | 62:47.07 | 5:02.48 | 282532 | 305229
Range status and errors
Selected range
Filename D:\Mahler - Lieder eines fahrenden Gesellen; Des Knaben Wunderhorn.wav
Peak level 99.9 %
Extraction speed 3.0 X
Range quality 100.0 %
Test CRC BA01EC9D
Copy CRC BA01EC9D
Copy OK
No errors occurred
End of status report
==== Log checksum EAE7A7719B4DCDD639B24B4BABA11B86A6C7FD26F96412ECAE07CD08F35F85F0 ====

Содержание индексной карты (.CUE)

REM GENRE Classical
REM DATE 1950
REM DISCID 110FE511
REM COMMENT "ExactAudioCopy v1.0b3"
PERFORMER "L.Ludwig und F.Prohaska"
TITLE "G.Mahler - Lieder eines fahrended Gesellen und Des Knaben Wunderhorn"
FILE "Mahler - Lieder eines fahrenden Gesellen; Des Knaben Wunderhorn.flac" WAVE
TRACK 01 AUDIO
TITLE "Lieder eines fahrenden Gesellen - Wenn mein Schatz Hochzeit macht"
PERFORMER "J.Metternich; Berlin Rundfunksinfonieorchester - L.Ludwig"
INDEX 01 00:00:00
TRACK 02 AUDIO
TITLE "Lieder eines fahrenden Gesellen - Ging heut morgens uber's Feld"
PERFORMER "J.Metternich; Berlin Rundfunksinfonieorchester - L.Ludwig"
INDEX 00 04:02:22
INDEX 01 04:05:57
TRACK 03 AUDIO
TITLE "Lieder eines fahrenden Gesellen - Ich hab ein gluhend Messer"
PERFORMER "J.Metternich; Berlin Rundfunksinfonieorchester - L.Ludwig"
INDEX 00 08:04:15
INDEX 01 08:07:30
TRACK 04 AUDIO
TITLE "Lieder eines fahrenden Gesellen - Die zwei blauen Augen von meinem Schatz"
PERFORMER "J.Metternich; Berlin Rundfunksinfonieorchester - L.Ludwig"
INDEX 00 11:00:62
INDEX 01 11:03:05
TRACK 05 AUDIO
TITLE "Des Knaben Wunderhorn - Revelge"
PERFORMER "L.Sydney, A.Poell; Wiener Staatsopernorchester - F.Prohaska"
INDEX 00 15:47:45
INDEX 01 15:54:12
TRACK 06 AUDIO
TITLE "Des Knaben Wunderhorn - Das irdische Leben"
PERFORMER "L.Sydney, A.Poell; Wiener Staatsopernorchester - F.Prohaska"
INDEX 00 22:34:72
INDEX 01 22:38:35
TRACK 07 AUDIO
TITLE "Des Knaben Wunderhorn - Lob des hohen Verstandes"
PERFORMER "L.Sydney, A.Poell; Wiener Staatsopernorchester - F.Prohaska"
INDEX 00 25:40:30
INDEX 01 25:41:37
TRACK 08 AUDIO
TITLE "Des Knaben Wunderhorn - Rheinlegendchen"
PERFORMER "L.Sydney, A.Poell; Wiener Staatsopernorchester - F.Prohaska"
INDEX 00 28:01:72
INDEX 01 28:04:50
TRACK 09 AUDIO
TITLE "Des Knaben Wunderhorn - Der Schildwachte Nachtlied"
PERFORMER "L.Sydney, A.Poell; Wiener Staatsopernorchester - F.Prohaska"
INDEX 00 31:20:30
INDEX 01 31:22:72
TRACK 10 AUDIO
TITLE "Des Knaben Wunderhorn - Wer hat dies Liedlein erdacht"
PERFORMER "L.Sydney, A.Poell; Wiener Staatsopernorchester - F.Prohaska"
INDEX 00 36:27:17
INDEX 01 36:30:25
TRACK 11 AUDIO
TITLE "Des Knaben Wunderhorn - Verlorne Muh"
PERFORMER "L.Sydney, A.Poell; Wiener Staatsopernorchester - F.Prohaska"
INDEX 00 38:36:42
INDEX 01 38:40:05
TRACK 12 AUDIO
TITLE "Des Knaben Wunderhorn - Der Tamboursg'sell"
PERFORMER "L.Sydney, A.Poell; Wiener Staatsopernorchester - F.Prohaska"
INDEX 00 41:09:32
INDEX 01 41:13:00
TRACK 13 AUDIO
TITLE "Des Knaben Wunderhorn - Trost im Ungluck"
PERFORMER "L.Sydney, A.Poell; Wiener Staatsopernorchester - F.Prohaska"
INDEX 00 46:01:00
INDEX 01 46:05:22
TRACK 14 AUDIO
TITLE "Des Knaben Wunderhorn - Wo die schonen Trompeten blasen"
PERFORMER "L.Sydney, A.Poell; Wiener Staatsopernorchester - F.Prohaska"
INDEX 00 48:14:52
INDEX 01 48:18:37
TRACK 15 AUDIO
TITLE "Des Knaben Wunderhorn - Des Antonius von Padua Fischpredigt"
PERFORMER "L.Sydney, A.Poell; Wiener Staatsopernorchester - F.Prohaska"
INDEX 00 54:33:40
INDEX 01 54:37:30
TRACK 16 AUDIO
TITLE "Des Knaben Wunderhorn - Lied des Verfolgten im Turm"
PERFORMER "L.Sydney, A.Poell; Wiener Staatsopernorchester - F.Prohaska"
INDEX 00 58:47:02
INDEX 01 58:51:12
TRACK 17 AUDIO
TITLE "Des Knaben Wunderhorn - Urlicht"
PERFORMER "L.Sydney, A.Poell; Wiener Staatsopernorchester - F.Prohaska"
INDEX 00 62:44:05
INDEX 01 62:47:07
-Доп. информация: На этой записи "Песен странствующего подмастерья" мои поиски идеального исполнения этого красивейшего и лаконичного вокального цикла закончились. Что-то превосходящее я представить себе не могу и доселе не слышал ничего близкого.
"Волшебный рог мальчика" под управлением Феликса Прохазки есть в двух вариантах: в представленном здесь и с Венским Симфоническим Оркестром, Хайнцом Рефусом и Морин Форрестер. Вторая запись кажется мне тоже чем-то вроде эталона, но и первая при этом сделана на высоком уровне.



Показать сообщения:    

Текущее время: 04-Дек 15:12

Часовой пояс: UTC + 3


Вы не можете начинать темы
Вы не можете отвечать на сообщения
Вы не можете редактировать свои сообщения
Вы не можете удалять свои сообщения
Вы не можете голосовать в опросах
Вы не можете прикреплять файлы к сообщениям
Вы не можете скачивать файлы