(Classical) Tauno Marttinen - Violin Concerto; Piano Concerto; Phantasy for Cello & Orchestra - Philippe Graffin, Ralph van Raat, Marko Ylonen, Turku PO, Asi Rasilainen, Tampere PO, Hannu Lintu - 2013, FLAC (image+.cue) lossless


Статистика раздачи [Обновить пиров]
Размер:  229 MB   |    Зарегистрирован:  8 месяцев 14 дней   |    Скачан:  1 раз

Полного источника не было: 3 месяца 16 дней

 
   
 
 
 

[Цитировать]

Tauno Marttinen - Violin Concerto; Piano Concerto; Phantasy for Cello & Orchestra - Philippe Graffin, Ralph van Raat, Marko Ylönen, Turku PO, Asi Rasilainen, Tampere PO, Hannu Lintu
Жанр: Classical
Год издания диска: 2013
Издатель (лейбл): Cobra Records
Номер по каталогу: COBRA 0041
Дата записи: 2012, 2013
Аудиокодек: FLAC
Тип рипа: image+.cue
Битрейт аудио: lossless
Продолжительность: 55:03
Источник: собственный рип
Наличие сканов в содержимом раздачи: да
Треклист:
Tauno Marttinen (1912-2008)
[1]-[3] Violin Concerto, Op.13
Philippe Graffin violin
[4]-[6] First Piano Concerto, Op.154
Ralph van Raat piano
Turku Philharmonic Orchestra
Asi Rasilainen

[7]-[9] Phantasy for Cello & Orchestra, Op.154
Marko Ylönen cello
Tampere Philharmonic Orchestra
Hannu Lintu

Исполнители:
Philippe Graffin violin
Ralph van Raat piano
Marko Ylönen cello
Turku Philharmonic Orchestra
Asi Rasilainen
Tampere Philharmonic Orchestra
Hannu Lintu

Лог создания рипа

Exact Audio Copy V1.0 beta 3 from 29. August 2011
EAC extraction logfile from 30. October 2014, 8:33
Turku Philharmonic Orchestra, Ari Rasilainen / Marttinen - Violin Concerto; Piano Concerto; Phantasy for Cello & Orchestra
Used drive : HL-DT-STDVDRAM GU70N Adapter: 0 ID: 0
Read mode : Secure
Utilize accurate stream : Yes
Defeat audio cache : Yes
Make use of C2 pointers : No
Read offset correction : 48
Overread into Lead-In and Lead-Out : No
Fill up missing offset samples with silence : Yes
Delete leading and trailing silent blocks : No
Null samples used in CRC calculations : Yes
Used interface : Native Win32 interface for Win NT & 2000
Used output format : User Defined Encoder
Selected bitrate : 128 kBit/s
Quality : High
Add ID3 tag : No
Command line compressor : C:\Program Files (x86)\Exact Audio Copy\Flac\flac.exe
Additional command line options : -V -8 -T "Date=%year%" -T "Genre=%genre%" %source%
TOC of the extracted CD
Track | Start | Length | Start sector | End sector
---------------------------------------------------------
1 | 0:00.00 | 10:10.54 | 0 | 45803
2 | 10:10.54 | 8:36.12 | 45804 | 84515
3 | 18:46.66 | 4:06.54 | 84516 | 103019
4 | 22:53.45 | 5:37.39 | 103020 | 128333
5 | 28:31.09 | 6:30.00 | 128334 | 157583
6 | 35:01.09 | 4:52.70 | 157584 | 179553
7 | 39:54.04 | 6:05.36 | 179554 | 206964
8 | 45:59.40 | 7:33.01 | 206965 | 240940
9 | 53:32.41 | 1:29.07 | 240941 | 247622
Range status and errors
Selected range
Filename C:\temp\Marttinen - Violin Concerto; Piano Concerto; Phantasy for Cello & Orchestra\Marttinen - Violin Concerto; Piano Concerto; Phantasy for Cello & Orchestra.wav
Peak level 96.5 %
Extraction speed 5.1 X
Range quality 100.0 %
Test CRC D60487D8
Copy CRC D60487D8
Copy OK
No errors occurred
AccurateRip summary
Track 1 not present in database
Track 2 not present in database
Track 3 not present in database
Track 4 not present in database
Track 5 not present in database
Track 6 not present in database
Track 7 not present in database
Track 8 not present in database
Track 9 not present in database
None of the tracks are present in the AccurateRip database
End of status report
==== Log checksum A9AA6F15AFF4C09C790323EE42EF0D9265E40DBD013AE4A4D73EA9BD05182EBC ====
[teatrix.ru].t20244.torrent 
Торрент: Зарегистрирован [ 2016-03-19 20:42 ] · FA8E8FD187F5206220EF821DA7AD483EDCF7B01B

Скачать .torrent

Скачать

38 KB

Статус: проверено
Скачан: 1 раз
Размер: 229 MB
terms.php



Быстрый ответ

Имя:

      
Для отправки сообщений необходимо включить JavaScript
Показать сообщения:    

Текущее время: 03-Дек 18:35

Часовой пояс: UTC + 3


Вы можете начинать темы
Вы можете отвечать на сообщения
Вы не можете редактировать свои сообщения
Вы не можете удалять свои сообщения
Вы не можете голосовать в опросах
Вы не можете прикреплять файлы к сообщениям
Вы можете скачивать файлы