Рихард Вагнер - Парсифаль (Метрополитан Опера; Франсуа Жирар, Даниэль Гатти) / Richard Wagner - Parsifal (Metropolitan Opera; Franсois Girard, Daniele Gatti) [2013, Opera, Blu-ray 1080i]


 

[Цитировать]

Рихард Вагнер - Парсифаль / Richard Wagner - Parsifal
Год выпуска: 2013
Лейбл: Sony Classical
Страна-производитель: США
Жанр: Opera
Продолжительность: 04:51:53
Язык: Немецкий
Субтитры: Английские, французские, немецкие, итальянские, испанские
Режиссер: Franсois Girard (Франсуа Жирар)
Дирижер: Daniele Gatti (Даниэль Гатти)
Исполнители:
Rene Pape (Рене Папе) - Gurnemanz,
Ryan Speedo Green (Райан Спидо Грин) - Second Knight of the Grail,
Lauren McNeese (Лорен МакНис) - Second Sentry,
Jennifer Forni (Дженнифер Форни) - First Sentry,
Mark Schowalter (Марк Шовальтер) - First Knight of the Grail,
Katarina Dalayman (Катарина Далайман) - Kundry,
Peter Mattei (Петер Маттеи) - Amfortas,
Andrew Stenson (Эндрю Стетсон) - Third Sentry,
Mario Chang (Марио Чанг) - Fourth Sentry,
Jonas Kaufmann (Йонас Кауфман) - Parsifal,
Rúni Brattaberg (Руни Браттаберг) - Titurel,
Maria Zifchak (Мария Зифчак) - A Voice,
Evgeny Nikitin (Евгений Никитин) - Klingsor
Metropolitan Opera Orchestra (оркестр Метрополитан опера)
Описание: Однажды король Монсальвата, Амфортас, был смертельно ранен колдуном Клингзором. По священному приданию спасти его сможет только «чистый простец», который прозреет через раскаяние и сочувствие. Король был ранен по вине Кундри, девушки-колдуньи, находящейся во власти Клингзора.
Она раскаялась в содеянном и искренне стремилась помочь. Но волшебный бальзам, привезенный ею издалека, даже не облегчил страданий Амфортаса. Тем временем в лесу был найден юноша, нарушивший закон. Он подстрелил лебедя, не зная, что находится на священной земле, где охота под запретом: ведь любое животное также священно. Кундри узнает в нем Парсифаля, сына королевы Герцелойды. Мать растила мальчика в неведении, стремясь уберечь его от участи отца – короля Гандина, который погиб на поле битвы. У рыцарей появляется надежда на исцеление короля Монсальвата – ведь они наконец нашли «чистого простеца», который, возможно, сможет исцелись страдающего от болезненной раны Амфортаса.
Злой колдун Клингзор прознал о Парсифале. Боясь встречи с ним, он приказывает Кундри соблазнить юношу. Она сопротивляется, но не в силах перебороть власть Клингзора. Девушка раскрывает Парсифалю тайну (о том, кто он), говорит о смерти его матери и пытается обманом добиться поцелуя: но вдруг юноша прозревает. Он отвергает девушку, а она, проклиная его, зовет Клингзора. Колдун бросает в Парсифаля священное копье, а оно застывает над его головой. Молодой храбрец перехватывает орудие и чертит им крест. Заклятие снято: сад злого колдуна исчез, Кундри освобождена от власти Клингзора. Юноша спешит к королю Амфортасу.
Парсифаля посвящают в короли Грааля (ведь недавно скончался Титурель, предыдущий король святыни). Юноша исцеляет рану Амфортаса священным копьем и снимает покрывало со святого Грааля, как вдруг чаша засияла в его руках. Освобожденная от своего проклятия, Кундри умирает.

Оригинальное описание

François Girard's new production of Wagner's Parsifal, conducted by Daniele Gatti and starring Jonas Kaufmann, Katarina Dalayman, and René Pape in the leading roles, opened February 15 to popular and critical acclaim.
Wagner at first ordained that Parsifal be staged only in Bayreuth, at his own theater. The music drama was introduced there on July 26, 1882, six months before the composer's death. Against the wishes of Wagner's heirs, Heinrich Conried presented the U.S. stage premiere of the work during his first season as general manager of the Metropolitan Opera, in 1903. Protests from Wagner's widow, Cosima, brought the issue to court. Ultimately Conried won, and the Metropolitan's version was hailed by some critics as superior to Bayreuth's. The Met's next new Parsifal production, in 1920, was directed by Richard Ordynski and designed by Josef Urban, whose decors were not replaced until 1956, when the company presented a new staging by Herbert Graf. The Met subsequently offered new Parsifal productions in 1970 (Nathaniel Merrill) and 1991 (Otto Schenk). The company's new staging by François Girard, a coproduction with the Opéra National de Lyon and Canadian Opera Company, had its Met premiere on February 15, 2013, with Daniele Gatti conducting.
Бонус: Backstage Parsifal
Рецензия
Качество видео: Blu-ray
Формат/Контейнер: BDMV
Видео кодек: MPEG4
Аудио кодек: LPCM, DTS
Видео поток: MPEG-4 Video, 1920x1080, 11437 kbps, 29.970 fps
Аудио поток: LPCM, 2304 kbps, 48 kHz, 2 ch. DTS-HD MA, 3438 kbps, 48 kHz, 6 ch

MediaInfo

Общее
Идентификатор : 0 (0x0)
Полное имя : W:\Torrent_4\Вагнер - Парсифаль (Metropolitan Opera) (2013) (Blu-ray 1080i, AVC, DTS-HD 5.0)\BDMV\STREAM\00000.m2ts
Формат : BDAV
Формат/Информация : Blu-ray Video
Размер файла : 17,6 Гбайт
Продолжительность : 1 ч. 54 м.
Режим общего битрейта : Переменный
Общий поток : 22,0 Мбит/сек
Максимальный общий битрейт : 48,0 Мбит/сек
Видео
Идентификатор : 4113 (0x1011)
Идентификатор меню : 1 (0x1)
Формат : AVC
Формат/Информация : Advanced Video Codec
Профиль формата : High@L4.1
Параметр CABAC формата : Да
Параметр ReFrames формата : 4 кадра
Идентификатор кодека : 27
Продолжительность : 1 ч. 54 м.
Вид битрейта : Переменный
Максимальный битрейт : 35,5 Мбит/сек
Ширина : 1920 пикселей
Высота : 1080 пикселей
Соотношение сторон : 16:9
Частота кадров : 29,970 кадров/сек
Стандарт вещания : NTSC
Цветовое пространство : YUV
Субдискретизация насыщенности : 4:2:0
Битовая глубина : 8 бит
Тип развёртки : MBAFF
Основные цвета : BT.709
Характеристики трансфера : BT.709
Коэффициенты матрицы : BT.709
Аудио #1
Идентификатор : 4352 (0x1100)
Идентификатор меню : 1 (0x1)
Формат : PCM
Параметр Endianness формата : Big
Параметр Sign формата : Signed
Режим смешивания : Blu-ray
Идентификатор кодека : 128
Продолжительность : 1 ч. 54 м.
Вид битрейта : Постоянный
Битрейт : 2304 Кбит/сек
Каналы : 2 канала
Расположение каналов : Front: L R
Частота : 48,0 КГц
Битовая глубина : 24 бит
Размер потока : 1,85 Гбайт (10%)
Аудио #2
Идентификатор : 4353 (0x1101)
Идентификатор меню : 1 (0x1)
Формат : DTS
Формат/Информация : Digital Theater Systems
Профиль формата : MA / Core
Режим : 16
Параметр Endianness формата : Big
Режим смешивания : Stream extension
Идентификатор кодека : 134
Продолжительность : 1 ч. 54 м.
Вид битрейта : Переменный
Битрейт : Неизвестно / 1509 Кбит/сек
Каналы : 6 каналов
Расположение каналов : Front: L C R, Side: L R, LFE
Частота : 48,0 КГц
Битовая глубина : 24 бит
Метод сжатия : Без потерь / Lossy
Текст #1
Идентификатор : 4608 (0x1200)
Идентификатор меню : 1 (0x1)
Формат : PGS
Идентификатор кодека : 144
Текст #2
Идентификатор : 4609 (0x1201)
Идентификатор меню : 1 (0x1)
Формат : PGS
Идентификатор кодека : 144
Текст #3
Идентификатор : 4610 (0x1202)
Идентификатор меню : 1 (0x1)
Формат : PGS
Идентификатор кодека : 144
Текст #4
Идентификатор : 4611 (0x1203)
Идентификатор меню : 1 (0x1)
Формат : PGS
Идентификатор кодека : 144
Текст #5
Идентификатор : 4612 (0x1204)
Идентификатор меню : 1 (0x1)
Формат : PGS
Идентификатор кодека : 144
Общее
Идентификатор : 0 (0x0)
Полное имя : W:\Torrent_4\Вагнер - Парсифаль (Metropolitan Opera) (2013) (Blu-ray 1080i, AVC, DTS-HD 5.0)\BDMV\STREAM\00001.m2ts
Формат : BDAV
Формат/Информация : Blu-ray Video
Размер файла : 10,7 Гбайт
Продолжительность : 1 ч. 10 м.
Режим общего битрейта : Переменный
Общий поток : 21,8 Мбит/сек
Максимальный общий битрейт : 48,0 Мбит/сек
Видео
Идентификатор : 4113 (0x1011)
Идентификатор меню : 1 (0x1)
Формат : AVC
Формат/Информация : Advanced Video Codec
Профиль формата : High@L4.1
Параметр CABAC формата : Да
Параметр ReFrames формата : 4 кадра
Параметр GOP формата : M=3, N=24
Идентификатор кодека : 27
Продолжительность : 1 ч. 10 м.
Вид битрейта : Переменный
Максимальный битрейт : 35,5 Мбит/сек
Ширина : 1920 пикселей
Высота : 1080 пикселей
Соотношение сторон : 16:9
Частота кадров : 29,970 кадров/сек
Стандарт вещания : NTSC
Цветовое пространство : YUV
Субдискретизация насыщенности : 4:2:0
Битовая глубина : 8 бит
Тип развёртки : MBAFF
Основные цвета : BT.709
Характеристики трансфера : BT.709
Коэффициенты матрицы : BT.709
Аудио #1
Идентификатор : 4352 (0x1100)
Идентификатор меню : 1 (0x1)
Формат : PCM
Параметр Endianness формата : Big
Параметр Sign формата : Signed
Режим смешивания : Blu-ray
Идентификатор кодека : 128
Продолжительность : 1 ч. 10 м.
Вид битрейта : Постоянный
Битрейт : 2304 Кбит/сек
Каналы : 2 канала
Расположение каналов : Front: L R
Частота : 48,0 КГц
Битовая глубина : 24 бит
Размер потока : 1,14 Гбайт (11%)
Аудио #2
Идентификатор : 4353 (0x1101)
Идентификатор меню : 1 (0x1)
Формат : DTS
Формат/Информация : Digital Theater Systems
Профиль формата : MA / Core
Режим : 16
Параметр Endianness формата : Big
Режим смешивания : Stream extension
Идентификатор кодека : 134
Продолжительность : 1 ч. 10 м.
Вид битрейта : Переменный
Битрейт : Неизвестно / 1509 Кбит/сек
Каналы : 6 каналов
Расположение каналов : Front: L C R, Side: L R, LFE
Частота : 48,0 КГц
Битовая глубина : 24 бит
Метод сжатия : Без потерь / Lossy
Текст #1
Идентификатор : 4608 (0x1200)
Идентификатор меню : 1 (0x1)
Формат : PGS
Идентификатор кодека : 144
Текст #2
Идентификатор : 4609 (0x1201)
Идентификатор меню : 1 (0x1)
Формат : PGS
Идентификатор кодека : 144
Задержка видео : 7 с. 41 мс.
Текст #3
Идентификатор : 4610 (0x1202)
Идентификатор меню : 1 (0x1)
Формат : PGS
Идентификатор кодека : 144
Задержка видео : 7 с. 41 мс.
Текст #4
Идентификатор : 4611 (0x1203)
Идентификатор меню : 1 (0x1)
Формат : PGS
Идентификатор кодека : 144
Задержка видео : 7 с. 41 мс.
Текст #5
Идентификатор : 4612 (0x1204)
Идентификатор меню : 1 (0x1)
Формат : PGS
Идентификатор кодека : 144
Задержка видео : 7 с. 41 мс.
Общее
Идентификатор : 0 (0x0)
Полное имя : W:\Torrent_4\Вагнер - Парсифаль (Metropolitan Opera) (2013) (Blu-ray 1080i, AVC, DTS-HD 5.0)\BDMV\STREAM\00002.m2ts
Формат : BDAV
Формат/Информация : Blu-ray Video
Размер файла : 14,6 Гбайт
Продолжительность : 1 ч. 46 м.
Режим общего битрейта : Переменный
Общий поток : 19,6 Мбит/сек
Максимальный общий битрейт : 48,0 Мбит/сек
Видео
Идентификатор : 4113 (0x1011)
Идентификатор меню : 1 (0x1)
Формат : AVC
Формат/Информация : Advanced Video Codec
Профиль формата : High@L4.1
Параметр CABAC формата : Да
Параметр ReFrames формата : 4 кадра
Параметр GOP формата : M=3, N=24
Идентификатор кодека : 27
Продолжительность : 1 ч. 46 м.
Вид битрейта : Переменный
Максимальный битрейт : 35,5 Мбит/сек
Ширина : 1920 пикселей
Высота : 1080 пикселей
Соотношение сторон : 16:9
Частота кадров : 29,970 кадров/сек
Стандарт вещания : NTSC
Цветовое пространство : YUV
Субдискретизация насыщенности : 4:2:0
Битовая глубина : 8 бит
Тип развёртки : MBAFF
Основные цвета : BT.709
Характеристики трансфера : BT.709
Коэффициенты матрицы : BT.709
Аудио #1
Идентификатор : 4352 (0x1100)
Идентификатор меню : 1 (0x1)
Формат : PCM
Параметр Endianness формата : Big
Параметр Sign формата : Signed
Режим смешивания : Blu-ray
Идентификатор кодека : 128
Продолжительность : 1 ч. 46 м.
Вид битрейта : Постоянный
Битрейт : 2304 Кбит/сек
Каналы : 2 канала
Расположение каналов : Front: L R
Частота : 48,0 КГц
Битовая глубина : 24 бит
Размер потока : 1,72 Гбайт (12%)
Аудио #2
Идентификатор : 4353 (0x1101)
Идентификатор меню : 1 (0x1)
Формат : DTS
Формат/Информация : Digital Theater Systems
Профиль формата : MA / Core
Режим : 16
Параметр Endianness формата : Big
Режим смешивания : Stream extension
Идентификатор кодека : 134
Продолжительность : 1 ч. 46 м.
Вид битрейта : Переменный
Битрейт : Неизвестно / 1509 Кбит/сек
Каналы : 6 каналов
Расположение каналов : Front: L C R, Side: L R, LFE
Частота : 48,0 КГц
Битовая глубина : 24 бит
Метод сжатия : Без потерь / Lossy
Текст #1
Идентификатор : 4608 (0x1200)
Идентификатор меню : 1 (0x1)
Формат : PGS
Идентификатор кодека : 144
Текст #2
Идентификатор : 4609 (0x1201)
Идентификатор меню : 1 (0x1)
Формат : PGS
Идентификатор кодека : 144
Задержка видео : 7 с. 41 мс.
Текст #3
Идентификатор : 4610 (0x1202)
Идентификатор меню : 1 (0x1)
Формат : PGS
Идентификатор кодека : 144
Задержка видео : 7 с. 41 мс.
Текст #4
Идентификатор : 4611 (0x1203)
Идентификатор меню : 1 (0x1)
Формат : PGS
Идентификатор кодека : 144
Задержка видео : 7 с. 41 мс.
Текст #5
Идентификатор : 4612 (0x1204)
Идентификатор меню : 1 (0x1)
Формат : PGS
Идентификатор кодека : 144
Задержка видео : 7 с. 41 мс.
Семпл

Скриншоты



Скриншоты доп. материалов




Показать сообщения:    

Текущее время: 09-Дек 03:02

Часовой пояс: UTC + 3


Вы не можете начинать темы
Вы не можете отвечать на сообщения
Вы не можете редактировать свои сообщения
Вы не можете удалять свои сообщения
Вы не можете голосовать в опросах
Вы не можете прикреплять файлы к сообщениям
Вы не можете скачивать файлы