История "Иглс" / History of the Eagles (Алекс Гибни /Alex Gibney, Элисон Эллвуд / Alison Ellwood)(Серии: 1-3 из 3) [2013, Документальный, TVRip] Rus Sub


Статистика раздачи [Обновить пиров]
Размер:  2.31 GB   |    Зарегистрирован:  8 месяцев 14 дней   |    Скачан:  1 раз

Полного источника не было: 2 месяца 29 дней

 
   
 
 
 

[Цитировать]

История "Иглс" / History of the Eagles
Год выпуска: 2013
Страна: США
Жанр: Документальный
Продолжительность: ~01:03:00 (серия)
Перевод: Субтитры
Русские субтитры: есть
Формат субтитров: hardsub (неотключаемые)
Оригинальная аудиодорожка: английский
Режиссер: Алекс Гибни /Alex Gibney, Элисон Эллвуд / Alison Ellwood
Телеканал: Аруц 8 (Израиль)
Описание: The Eagles (читается: Иглс, дословный перевод: «Орлы») — американская рок-группа, которая настолько талантливо исполняла мелодичный гитарный кантри-рок, что в течение десяти лет своего существования (1971-81) сумела пять раз возглавить американские поп-чарты синглов (Billboard Hot 100) и четырежды — хит-парад альбомов (Billboard Top 200). Сборник их величайших хитов, выпущенный ещё в 1976 году, был распродан тиражом в 30 миллионов экземпляров и до сих пор остаётся самым продаваемым альбомом в истории США. В общей сложности в Америке было реализовано 65.000.000 копий их альбомов, что делает их третьим по популярности в США коллективом всех времен, после британцев The Beatles и Led Zeppelin.Группа была образована Доном Хенли и Гленном Фраем в Лос-Анджелесе в 1971 году. У истоков коллектива стоял продюсер Линды Ронштадт, а участники были набраны из рок-команд различной музыкальной направленности. По этой причине они органично впитали и переработали множество музыкальных влияний, среди которых не последнее место занимали Боб Дилан и Нил Янг. В 1976 году выходит один из самых коммерчески успешных альбомов в истории рок-музыки — «Hotel California» с одноименным хитом, который стал визитной карточкой «самой американской из рок-групп» за пределами Штатов. О жизни и творчестве, о распаде и воссоединении рассказывают сами участники группы The Eagles в этом документальном фильме.
Релиз группы:
Доп. информация: Запись с канала "Аруц 8". Фильмы на английском языке с двойными субтитрами (вшитыми) на русском языке и иврите. Перевод: Татьяна Кадаш (1), Стелла Рожинская (2), Людмила Ярошевская (3). Субтитры: Дори Медиа от ЛТД.
Сэмпл: https://yadi.sk/i/6sjT6p-peN3KH
Другие и альтернативные раздачи https://78.24.219.58:1500/tracker.php?nm=History%20of%20the%20Eagles
качество: TVRip
формат: AVI
Видео: 1512 Кbps, 704х432 (1.630), 25.000 fps, MPEG-4 Visual (XviD)(Advanced Simple@L5)(BVOP)
Аудио: 128 Kbps,48.0 KHz, 2 сhannels, MPEG Audio (MP3) (Version 1)(Layer 3)(Joint stereo/MS Stereo)

MediaInfo

General
Complete name : D:\History of the Eagles-1.avi
Format : AVI
Format/Info : Audio Video Interleave
File size : 745 MiB
Duration : 1h 3mn
Overall bit rate : 1 650 Kbps
Writing library : VirtualDub-MPEG2 build 24600/release
Video
ID : 0
Format : MPEG-4 Visual
Format profile : Advanced Simple@L5
Format settings, BVOP : Yes
Format settings, QPel : No
Format settings, GMC : No warppoints
Format settings, Matrix : Default (MPEG)
Codec ID : XVID
Codec ID/Hint : XviD
Duration : 1h 3mn
Bit rate : 1 512 Kbps
Width : 704 pixels
Height : 432 pixels
Display aspect ratio : 1.630
Frame rate : 25.000 fps
Color space : YUV
Chroma subsampling : 4:2:0
Bit depth : 8 bits
Scan type : Progressive
Bits/(Pixel*Frame) : 0.199
Stream size : 682 MiB (92%)
Writing library : XviD 58
Audio
ID : 1
Format : MPEG Audio
Format version : Version 1
Format profile : Layer 3
Mode : Joint stereo
Mode extension : MS Stereo
Codec ID : 55
Codec ID/Hint : MP3
Duration : 1h 3mn
Bit rate mode : Constant
Bit rate : 128 Kbps
Channel(s) : 2 channels
Sampling rate : 48.0 KHz
Stream size : 57.7 MiB (8%)
Alignment : Split accross interleaves
Interleave, duration : 40 ms (1.00 video frame)
Interleave, preload duration : 500 ms

Скриншоты

[teatrix.ru].t20248.torrent 
Торрент: Зарегистрирован [ 2016-03-19 20:42 ] · C40C86F9E1F1535E1D9DC7F2E7982450B8B6485B

Скачать .torrent

Скачать

4 KB

Статус: проверено
Скачан: 1 раз
Размер: 2.31 GB
terms.php



Быстрый ответ

Имя:

      
Для отправки сообщений необходимо включить JavaScript
Показать сообщения:    

Текущее время: 03-Дек 03:23

Часовой пояс: UTC + 3


Вы можете начинать темы
Вы можете отвечать на сообщения
Вы не можете редактировать свои сообщения
Вы не можете удалять свои сообщения
Вы не можете голосовать в опросах
Вы не можете прикреплять файлы к сообщениям
Вы можете скачивать файлы