[TR24][OF] П.И. Чайковский - Серенада для струнного оркестра Op. 48; Béla Bartók (Bela Bartok) - Divertimento vonószenekarra Sz 113, BB 118 (Роман Симович, LSO String Ensemble) - 2014 (Classical)


Статистика раздачи [Обновить пиров]
Размер:  1.17 GB   |    Зарегистрирован:  8 месяцев 21 день   |    Скачан:  0 раз

Полного источника не было: Никогда

 
   
 
 
 

[Цитировать]

П.И. Чайковский - Серенада для струнного оркестра
Béla Bartók - Divertimento vonószenekarra
Роман Симович, LSO String Ensemble
- Год издания: 2014
Жанр: Classical
Издатель (лейбл): LSO Live
Продолжительность: 00:55:50
Наличие сканов: Sleeve, Digital Booklet
- -
Pyotr Tchaikovsky (1840-1893)
Serenade for Strings in C major, Op 48 (1880)
01. I. Pezzo in forma di sonatina: Andante non troppo – Allegro moderato (9:41)
02. II. Valse: Moderato – Tempo di valse (3:46)
03. III. Élégie: Larghetto elegiaco (8:50)
04. IV. Finale (Tema russo): Andante – Allegro con spirito (7:29)
Béla Bartók (1881-1945)
Divertimento, Sz 113 (1939)
05. I. Allegro ma non troppo (9:35)
06. II. Molto adagio (9:26)
07. III. Allegro assai (7:03)
-
LSO String Ensemble
Roman Simović - leader
Recorded live in DSD, 27 October 2013 at the Barbican, London
-Контейнер: FLAC (*.flac)
Тип рипа: tracks
Разрядность: 24bit / 96kHz
Количество каналов: 2.0
-О релизе
Sophisticated and dynamic
The LSO’s magnificent string sound is world renowned and this recording marks the LSO Live debut of the LSO String Ensemble, led by LSO Leader Roman Simovic, who directs a performance of the much loved Tchaikovsky Serenade for Strings, together with Bartók’s Divertimento.
The Serenade has proved to be one of Tchaikovsky’s most enduringly popular works, a piece he described as being “passionately in love with”. Inspired in part by Mozart, its elegant music weaves Russian folk-song, and a fine example of the composer’s beloved Waltz, with an elegiac musical centrepiece.
Also featured on this release is Bartók’s Divertimento, one of the composer’s last works before leaving Europe for exile in the US. The Divertimento is a highly original work in its own unique idiom, contrasting two buoyant and light-hearted movements with a sombre Adagio in four sections.
Roman Simovic, leader of the LSO & the LSO String Ensemble, says of the ensemble s premiere recording, 'I am thrilled every time I direct the LSO Strings. With an incredible amount of energy in just a few days we achieved a huge spectrum of colours in the Tchaikovsky Serenade for Strings and Bartok s Divertimento. We wanted to achieve an intimate chamber sound by relying on our ears and our reactions. Every player realised their own personal importance and impact on this recording and it is a big honour for me to be a part of their team and this recording. I think the LSO Strings are a very special ensemble'.
„A reminder if reminder were needed just how world-class the string section of the London Symphony Orchestra is, now finally the equal of the orchestra s celebrated brass section, the latter long considered among the finest in the world. Both pieces here are given performances of great authority.“ (Barry Forshaw CD Choice)
“in both works the control of dynamics, inner voicing and rhythm is marvellous.” (Hi-Fi News)
“the performance is…an enjoyable one, catching fire in the finale where the focus on gentle gradations of tone and timbre yields to the more earthy vivacity one might have expected from this source.” (International Record Review)

ОтчётыДинамический диапазон

foobar2000 1.2.2 / Dynamic Range Meter 1.1.1
log date: 2015-01-31 13:35:19
--------------------------------------------------------------------------------
Analyzed: Roman Simovic, LSO String Ensemble / Tchaikovsky - Serenade in C; Bartók - Divertimento
--------------------------------------------------------------------------------
DR Peak RMS Duration Track
--------------------------------------------------------------------------------
DR13 -1.42 dB -19.39 dB 9:41 ?-Serenade for Strings in C major, Op 48 (1880) - I. Pezzo in forma di sonatina: Andante non troppo – Allegro moderato
DR12 -6.27 dB -22.86 dB 3:46 ?-Serenade for Strings in C major, Op 48 (1880) - II. Valse: Moderato – Tempo di valse
DR13 -3.82 dB -23.19 dB 8:50 ?-Serenade for Strings in C major, Op 48 (1880) - III. Élégie: Larghetto elegiaco
DR13 -0.17 dB -19.56 dB 7:29 ?-Serenade for Strings in C major, Op 48 (1880) - IV. Finale (Tema russo): Andante – Allegro con spirito
DR14 -1.22 dB -20.62 dB 9:35 ?-Divertimento, Sz 113 (1939) - I. Allegro ma non troppo
DR13 -5.98 dB -26.32 dB 9:26 ?-Divertimento, Sz 113 (1939) - II. Molto adagio
DR13 -1.62 dB -20.62 dB 7:03 ?-Divertimento, Sz 113 (1939) - III. Allegro assai
--------------------------------------------------------------------------------
Number of tracks: 7
Official DR value: DR13
Samplerate: 96000 Hz
Channels: 2
Bits per sample: 24
Bitrate: 3017 kbps
Codec: FLAC
================================================================================

Скриншот спектра частот

Доп. информация

При скачивании, если необходимо, переименуйте папку, в которой будет находиться альбомБольшая просьба к скачавшим поддерживать раздачу! Помогайте другим, ведь вам тоже может понадобиться помощь!Не забываем говорить "Спасибо"!Комментарии приветствуются!
[teatrix.ru].t20249.torrent 
Торрент: Зарегистрирован [ 2016-03-19 20:42 ] · 46FC09920536038000F667B040B0D818692AEEDA

Скачать .torrent

Скачать

13 KB

Статус: проверено
Скачан: 0 раз
Размер: 1.17 GB
terms.php



Быстрый ответ

Имя:

      
Для отправки сообщений необходимо включить JavaScript
Показать сообщения:    

Текущее время: 10-Дек 04:12

Часовой пояс: UTC + 3


Вы можете начинать темы
Вы можете отвечать на сообщения
Вы не можете редактировать свои сообщения
Вы не можете удалять свои сообщения
Вы не можете голосовать в опросах
Вы не можете прикреплять файлы к сообщениям
Вы можете скачивать файлы