[TR24][SM][OF] Shostakovich/Дмитрий Шостакович - Symphony No. 7 ‘Leningrad’ - Vasily Petrenko & Royal Liverpool Philharmonic Orchestra - 2013 (Classical)


Статистика раздачи [Обновить пиров]
Размер:  1.33 GB   |    Зарегистрирован:  8 месяцев 15 дней   |    Скачан:  1 раз

Полного источника не было: 1 день 20 часов

 
   
 
 
 

[Цитировать]

Dmitry Shostakovich (1906–1975)
Формат записи/Источник записи: [TR24][SM][OF]
Наличие водяных знаков: Нет
Издание: 8.573057
Год издания/переиздания диска: 2013
Жанр: Classical
Издатель(лейбл): Naxos
Продолжительность: 79:15
Наличие сканов в содержимом раздачи: cover art, inlay, booklet
Треклист:
Symphony No. 7 ‘Leningrad’, Op. 60 (1941)
1 Allegretto 28:32
2 Moderato (Poco allegretto) 12:58
3 Adagio – 18:44
4 Allegro non troppo 19:01
Контейнер: FLAC (*.flac)
Тип рипа: tracks
Разрядность: 24/96
Формат: WAV (flac.ape.wv)
Количество каналов: 2.0
Vasily Petrenko & Royal Liverpool Philharmonic Orchestra

http://www.prestoclassical.co.uk/r/Naxos/8573057-

Dynamic Range Meter

foobar2000 1.2.6 / Dynamic Range Meter 1.1.1
log date: 2015-01-31 21:39:36
--------------------------------------------------------------------------------
Analyzed: Royal Liverpool Philharmonic Orchestra, Vasily Petrenko / Shostakovich: Symphony No. 7 ‘Leningrad’, Op. 60 (1941)
--------------------------------------------------------------------------------
DR Peak RMS Duration Track
--------------------------------------------------------------------------------
DR14 0.00 dB -20.24 dB 28:35 01-Symphony No. 7 ‘Leningrad’, Op. 60 (1941) - I. Allegretto
DR16 -2.66 dB -26.64 dB 12:57 02-Symphony No. 7 ‘Leningrad’, Op. 60 (1941) - II. Moderato (poco allegretto)
DR15 -2.02 dB -24.87 dB 18:39 03-Symphony No. 7 ‘Leningrad’, Op. 60 (1941) - III. Adagio
DR15 0.00 dB -20.38 dB 18:59 04-Symphony No. 7 ‘Leningrad’, Op. 60 (1941) - IV. Allegro non troppo
--------------------------------------------------------------------------------
Number of tracks: 4
Official DR value: DR15
Samplerate: 96000 Hz
Channels: 2
Bits per sample: 24
Bitrate: 2484 kbps
Codec: FLAC
================================================================================
[teatrix.ru].t20250.torrent 
Торрент: Зарегистрирован [ 2016-03-19 20:42 ] · 2774B3E91108B2C708093E862EAA73E61E1306AC

Скачать .torrent

Скачать

15 KB

Статус: проверено
Скачан: 1 раз
Размер: 1.33 GB
terms.php



Быстрый ответ

Имя:

      
Для отправки сообщений необходимо включить JavaScript
Показать сообщения:    

Текущее время: 04-Дек 13:16

Часовой пояс: UTC + 3


Вы можете начинать темы
Вы можете отвечать на сообщения
Вы не можете редактировать свои сообщения
Вы не можете удалять свои сообщения
Вы не можете голосовать в опросах
Вы не можете прикреплять файлы к сообщениям
Вы можете скачивать файлы