(Classical) Pauline Viardot Garcia - Viardot Melodies: Chopin mazurkas and other songs (Marina Comparato, Elisa Triulzi) - 2014, FLAC (image+.cue) lossless


 

[Цитировать]

Viardot Melodies: Chopin mazurkas and other songs
Жанр: Classical
Страна-производитель диска: Italy
Год издания диска: 2014
Издатель (лейбл): BRILLIANT classics
Номер по каталогу: 94615
Дата записи: 2012
Аудиокодек: FLAC
Тип рипа: image+.cue
Битрейт аудио: lossless
Продолжительность: 79'38
Источник: собственный рип
Наличие сканов в содержимом раздачи: да
Треклист:
12 Mazurkas
1. Seize ans
2. Aime-moi
3. Plainte d'amour
4. Coquette
5. L'Oiselet
6. Separation
7. La Fete
8. Faible coeur
9. La jeune fille
10. Berceuse
11. La Danse
12. La Beaute
from Six melodies (1887)
13. No.5 Madrid
14. Canzonett de Concert
Albom de Chant pour 1850
15. Solitude
16. La petite Chevriere
17. L'Absence
18. Un jour de printemps
19. Villanelle
20. En Mer
21. La Chanson de Loic
22. Marie et Julie
23. La Luciole
24. Tarentelle
Исполнители:
Marina Comparato - mezzo-soprano
Elisa Triulzi - piano
Полина Мишель Фердинанд Гарсиа-Виардо

Лог создания рипа

Exact Audio Copy V1.0 beta 4 from 7. December 2014
Отчёт EAC об извлечении, выполненном 31. января 2015, 21:02
- / Melodies
Дисковод: HL-DT-STDVDRAM GT31N Adapter: 1 ID: 0
Режим чтения : Достоверность
Использование точного потока : Да
Отключение кэша аудио : Да
Использование указателей C2 : Нет
Комбинированное смещение чтения/записи : 667
Способность читать области Lead-in и Lead-out : Нет
Заполнение пропущенных сэмплов тишиной : Да
Удаление блоков с тишиной в начале и конце : Нет
При вычислениях CRC использовались нулевые сэмплы : Да
Интерфейс : Встроенный Win32-интерфейс для Win NT/2000
Выходной формат : Пользовательский кодировщик
Выбранный битрейт : 896 kBit/s
Качество : Высокий
Добавление ID3-тега : Нет
Утилита сжатия : C:\Program Files\Exact Audio Copy\FLAC\FLAC.EXE
Дополнительные параметры : -6 -V -T "ARTIST=%artist%" -T "TITLE=%title%" -T "ALBUM=%albumtitle%" -T "DATE=%year%" -T "TRACKNUMBER=%tracknr%" -T "GENRE=%genre%" -T "COMMENT=%comment%" -T "BAND=%albuminterpret%" -T "ALBUMARTIST=%albuminterpret%" -T "COMPOSER=%composer%" %haslyrics%--tag-from-file=LYRICS="%lyricsfile%"%haslyrics% -T "DISCNUMBER=%cdnumber%" -T "TOTALDISCS=%totalcds%" -T "TOTALTRACKS=%numtracks%" %hascover%--picture="%coverfile%"%hascover% %source% -o %dest%
TOC извлечённого CD
Трек | Старт | Длительность | Начальный сектор | Конечный сектор
---------------------------------------------------------------------
1 | 0:00.00 | 4:00.53 | 0 | 18052
2 | 4:00.53 | 2:50.09 | 18053 | 30811
3 | 6:50.62 | 3:24.29 | 30812 | 46140
4 | 10:15.16 | 2:38.24 | 46141 | 58014
5 | 12:53.40 | 3:16.54 | 58015 | 72768
6 | 16:10.19 | 2:12.00 | 72769 | 82668
7 | 18:22.19 | 4:32.44 | 82669 | 103112
8 | 22:54.63 | 4:55.14 | 103113 | 125251
9 | 27:50.02 | 3:11.16 | 125252 | 139592
10 | 31:01.18 | 3:29.22 | 139593 | 155289
11 | 34:30.40 | 3:41.27 | 155290 | 171891
12 | 38:11.67 | 2:16.68 | 171892 | 182159
13 | 40:28.60 | 3:05.21 | 182160 | 196055
14 | 43:34.06 | 4:10.17 | 196056 | 214822
15 | 47:44.23 | 2:42.30 | 214823 | 227002
16 | 50:26.53 | 2:32.44 | 227003 | 238446
17 | 52:59.22 | 2:05.57 | 238447 | 247878
18 | 55:05.04 | 2:40.27 | 247879 | 259905
19 | 57:45.31 | 3:01.68 | 259906 | 273548
20 | 60:47.24 | 5:56.22 | 273549 | 300270
21 | 66:43.46 | 4:08.56 | 300271 | 318926
22 | 70:52.27 | 2:28.55 | 318927 | 330081
23 | 73:21.07 | 2:54.45 | 330082 | 343176
24 | 76:15.52 | 3:23.13 | 343177 | 358414
Характеристики диапазона извлечения и сообщения об ошибках
Выбранный диапазон
Имя файла C:\Documents and Settings\Алексей\Рабочий стол\Viardot Melodies\Melodies.wav
Пиковый уровень 98.8 %
Скорость извлечения 3.4 X
Качество диапазона 100.0 %
CRC теста 22708176
CRC копии 22708176
Копирование... OK
Ошибок не произошло
Конец отчёта
==== Контрольная сумма отчёта 01E1DFDEF8560A7BD0848B8E8EFE126247C38FCA548143C06DF478C29EB5E135 ====

Содержание индексной карты (.CUE)

REM DATE 2014
REM DISCID 5212AA18
REM COMMENT "ExactAudioCopy v1.0b4"
PERFORMER ""
TITLE "Viardot Melodies"
FILE "Viardot Melodies.flac" WAVE
TRACK 01 AUDIO
TITLE "Seize ans"
PERFORMER ""
FLAGS DCP
INDEX 01 00:00:00
TRACK 02 AUDIO
TITLE "Aime-moi"
PERFORMER ""
FLAGS DCP
INDEX 01 04:00:53
TRACK 03 AUDIO
TITLE "Plainte d'amour"
PERFORMER ""
FLAGS DCP
INDEX 00 05:29:52
INDEX 01 06:50:62
TRACK 04 AUDIO
TITLE "Coquette"
PERFORMER ""
FLAGS DCP
INDEX 01 10:15:16
TRACK 05 AUDIO
TITLE "L'Oiselet"
PERFORMER ""
FLAGS DCP
INDEX 01 12:53:40
TRACK 06 AUDIO
TITLE "Separation"
PERFORMER ""
FLAGS DCP
INDEX 01 16:10:19
TRACK 07 AUDIO
TITLE "La Fete"
PERFORMER ""
FLAGS DCP
INDEX 01 18:22:19
TRACK 08 AUDIO
TITLE "Faible coeur"
PERFORMER ""
FLAGS DCP
INDEX 01 22:54:63
TRACK 09 AUDIO
TITLE "La jeune fille"
PERFORMER ""
FLAGS DCP
INDEX 01 27:50:02
TRACK 10 AUDIO
TITLE "Berceuse"
PERFORMER ""
FLAGS DCP
INDEX 01 31:01:18
TRACK 11 AUDIO
TITLE "La Danse"
PERFORMER ""
FLAGS DCP
INDEX 01 34:30:40
TRACK 12 AUDIO
TITLE "La Beaute"
PERFORMER ""
FLAGS DCP
INDEX 01 38:11:67
TRACK 13 AUDIO
TITLE "No.5 Madrid"
PERFORMER ""
FLAGS DCP
INDEX 01 40:28:60
TRACK 14 AUDIO
TITLE "Canzonett de Concert"
PERFORMER ""
FLAGS DCP
INDEX 01 43:34:06
TRACK 15 AUDIO
TITLE "Solitude"
PERFORMER ""
FLAGS DCP
INDEX 01 47:44:23
TRACK 16 AUDIO
TITLE "La petite Chevriere"
PERFORMER ""
FLAGS DCP
INDEX 01 50:26:53
TRACK 17 AUDIO
TITLE "L'Absence"
PERFORMER ""
FLAGS DCP
INDEX 01 52:59:22
TRACK 18 AUDIO
TITLE "Un jour de printemps"
PERFORMER ""
FLAGS DCP
INDEX 01 55:05:04
TRACK 19 AUDIO
TITLE "Villanelle"
PERFORMER ""
FLAGS DCP
INDEX 01 57:45:31
TRACK 20 AUDIO
TITLE "En Mer"
PERFORMER ""
FLAGS DCP
INDEX 01 60:47:24
TRACK 21 AUDIO
TITLE "La Chanson de Loic"
PERFORMER ""
FLAGS DCP
INDEX 00 65:17:69
INDEX 01 66:43:46
TRACK 22 AUDIO
TITLE "Marie et Julie"
PERFORMER ""
FLAGS DCP
INDEX 01 70:52:27
TRACK 23 AUDIO
TITLE "La Luciole"
PERFORMER ""
FLAGS DCP
INDEX 01 73:21:07
TRACK 24 AUDIO
TITLE "Tarentelle"
PERFORMER ""
FLAGS DCP
INDEX 00 75:57:52
INDEX 01 76:15:52

Дополнительная информация

Daughter of the famous tenor García, himself a favourite of Gioachino Rossini, Pauline Viardot was originally destined to become a pianist (and was at one time tutored by Liszt) before the deaths of her father and singer-sister saw her re-trained as a mezzo-soprano by her mother. In 1839 she made her operatic debut in London, subsequently achieving renown on the concert and operatic stages of Great Britain, Germany and Russia in particular. Among her admirers in St Petersburg was the young Ivan Turgenev, later to become the best-known author of his country in Europe and North America.
Viardot’s place in the history books is not down to vocal prowess alone, for she was also a keen composer, writing in various genres and languages throughout her adult life. Unsurprisingly it is the song that dominates the majority of her output, and Viardot also included as part of her oeuvre arrangements for voice of instrumental works – the most famous being those based on Chopin’s Mazurkas, which we know she performed in concert together with the composer at least one occasion. In addition to the Canzonetta de Concert, now thought to be based on a string quartet by Roman Hoffstetter, the release includes the 10 mélodies par Pauline Viardot – her second collection of étrennes (then-fashionable New Year presents for music lovers) in which she explores rhythmic and other elements of verse, mainly by French poets unknown today. Viardot never forgot her Spanish roots, however, as ‘Caña española’ and Madrid (No.5 from her 1887 album) attest. Figures with whom her illustrious career brought her into contact are also acknowledged – Meyerbeer and Berlioz are among the dedicatees in 10 mélodies.
At hand to perform these works are Italian mezzo-soprano Marina Comparato – who made her debut under Claudio Abbado and has since performed at many of the world’s leading opera houses – and her accompanist Elisa Triulzi, a graduate of the Guido Cantelli Conservatoire and much of whose work is dedicated to the art of répétiteuring. The release is a delightful testament to the talented and lively scene of female composition during the Romantic era.
Other information:
- Recorded: December 2012, Auditorium Matteo d’Acquasparta, Acquasparta,Terni, Italy.
- Pauline Viardot (1821-1910) was one of the most celebrated, cosmopolitan artists of the 19th century. Daughter of the famous tenor Garcia (favourite tenor of Rossini) and sister of Maria Malibran (the most famous soprano of her time) she travelled Europe as an opera singer, maintained a passionate relationship with the Russian writer Ivan Turgenyev, and held legendary “salons” in Paris, frequented by George Sand, De Musset, Rossini, Chopin, Berlioz and many others.
- As a composer she wrote a fine body of “lieder”, several of which are based on Chopin’s Mazurkas (which she performed with the composer at the piano). This CD presents a substantial selection of these delightful songs.
- Beautifully sung by mezzo-soprano Marina Comparato, who made her debut under Claudio Abbado, and has performed in the world’s foremost opera houses.
- Booklet includes comprehensive notes on the composer and music. Artist biographies also included.
- Sung texts available on this page soon.

Ещё диски с произведениями Полины Виардо

"Полина Виардо и Друзья" (2007)
https://78.24.219.58:1500/viewtopic.php?t=4524431
"Полина Виардо - Русские мелодии" (2012)
https://78.24.219.58:1500/viewtopic.php?t=4525008
"Полина Виардо - Золушка" (2000)
https://78.24.219.58:1500/viewtopic.php?t=4525490
"Полина Виардо-Гарсия - Избранные композиции" (2004)
https://78.24.219.58:1500/viewtopic.php?t=4523925
"Полина Виардо-Гарсия - Избранные композиции" (2000)
https://78.24.219.58:1500/viewtopic.php?t=4523507
"Полина Виардо - Песнь торжествующей любви" (2009)
https://78.24.219.58:1500/viewtopic.php?t=4524242
"Полина Виардо-Гарсия - Избранные композиции" (1989)
https://78.24.219.58:1500/viewtopic.php?t=4931944



Показать сообщения:    

Текущее время: 09-Дек 03:03

Часовой пояс: UTC + 3


Вы не можете начинать темы
Вы не можете отвечать на сообщения
Вы не можете редактировать свои сообщения
Вы не можете удалять свои сообщения
Вы не можете голосовать в опросах
Вы не можете прикреплять файлы к сообщениям
Вы не можете скачивать файлы