Небесные странники (Марк Захаров) [2014, драма, DVB] театр "Ленком"


 

[Цитировать]

Небесные странники (2 действия)
Название театра: театр "Ленком"
Жанр: драма
Год выпуска: 2014
Продолжительность: 00:52:54 + 00:51:55
Режиссёр: Марк Захаров
В ролях: Александра Захарова, Виктор Раков, Александр Балуев, Сергей Степанченко, Иван Агапов, Анна Якунина
Описание: Сценическая фантазия Марка Захарова по произведениям Аристофана и Антона Павловича Чехова. Между произведениями, которые лежат в основе спектакля, две тысячи лет, но это не только не мешает им отлично сочетаться между собой на сцене, но и дает возможность зрителям примерить сюжет на наши дни.
Доп. информация:
Запись потока *.ts со спутника Ямал 202, 49° в.д., ремукс в *.mpg программой VideoReDo.
Семпл: здесь
Качество видео: DVB
Формат видео: MPEG-PS
Видео: MPEG Video, 720(768)x576 (4:3), 25,000 кадров/сек, 5323 Кбит/сек
Аудио: MPEG Audio, 48,0 КГц, 256 Кбит/сек, 2 канала

MediaInfo

Общее
Полное имя : D:\Torrent\НЕБЕСНЫЕ СТРАННИКИ\НЕБЕСНЫЕ СТРАННИКИ 1 (КУЛЬТУРА 49).mpg
Формат : MPEG-PS
Размер файла : 2,10 Гбайт
Продолжительность : 52 м.
Режим общего битрейта : Переменный
Общий поток : 5695 Кбит/сек
Видео
Идентификатор : 224 (0xE0)
Формат : MPEG Video
Версия формата : Version 2
Профиль формата : Main@Main
Параметр BVOP формата : Да
Параметр матрицы формата : Выборочная
Параметр GOP формата : M=3, N=15
Format_Settings_PictureStructure : Frame
Продолжительность : 52 м.
Вид битрейта : Переменный
Битрейт : 5326 Кбит/сек
Максимальный битрейт : 15,0 Мбит/сек
Ширина : 720 пикселей
Высота : 576 пикселей
Соотношение сторон : 4:3
Частота кадров : 25,000 кадров/сек
Стандарт вещания : PAL
Цветовое пространство : YUV
Субдискретизация насыщенности : 4:2:0
Битовая глубина : 8 бит
Тип развёртки : Чересстрочная
Порядок развёртки : Верхнее поле первое
Метод сжатия : С потерями
Бит/(Пиксели*Кадры) : 0.514
Временной код первого кадра : 00:00:00:00
Оригинал временного кода : Group of pictures header
Размер потока : 1,97 Гбайт (94%)
Аудио
Идентификатор : 192 (0xC0)
Формат : MPEG Audio
Версия формата : Version 1
Профиль формата : Layer 2
Продолжительность : 52 м.
Вид битрейта : Постоянный
Битрейт : 256 Кбит/сек
Каналы : 2 канала
Частота : 48,0 КГц
Метод сжатия : С потерями
Задержка видео : 13 мс.
Размер потока : 96,9 Мбайт (4%)
Общее
Полное имя : D:\Torrent\НЕБЕСНЫЕ СТРАННИКИ\НЕБЕСНЫЕ СТРАННИКИ 2 (КУЛЬТУРА 49).mpg
Формат : MPEG-PS
Размер файла : 2,07 Гбайт
Продолжительность : 51 м.
Режим общего битрейта : Переменный
Общий поток : 5694 Кбит/сек
Видео
Идентификатор : 224 (0xE0)
Формат : MPEG Video
Версия формата : Version 2
Профиль формата : Main@Main
Параметр BVOP формата : Да
Параметр матрицы формата : Выборочная
Параметр GOP формата : M=3, N=15
Format_Settings_PictureStructure : Frame
Продолжительность : 51 м.
Вид битрейта : Переменный
Битрейт : 5325 Кбит/сек
Максимальный битрейт : 15,0 Мбит/сек
Ширина : 720 пикселей
Высота : 576 пикселей
Соотношение сторон : 4:3
Частота кадров : 25,000 кадров/сек
Стандарт вещания : PAL
Цветовое пространство : YUV
Субдискретизация насыщенности : 4:2:0
Битовая глубина : 8 бит
Тип развёртки : Чересстрочная
Порядок развёртки : Верхнее поле первое
Метод сжатия : С потерями
Бит/(Пиксели*Кадры) : 0.514
Временной код первого кадра : 00:00:00:00
Оригинал временного кода : Group of pictures header
Размер потока : 1,93 Гбайт (94%)
Аудио
Идентификатор : 192 (0xC0)
Формат : MPEG Audio
Версия формата : Version 1
Профиль формата : Layer 2
Продолжительность : 51 м.
Вид битрейта : Постоянный
Битрейт : 256 Кбит/сек
Каналы : 2 канала
Частота : 48,0 КГц
Метод сжатия : С потерями
Задержка видео : 21 мс.
Размер потока : 95,1 Мбайт (4%)

Скриншот с названием постановки




Показать сообщения:    

Текущее время: 10-Дек 17:43

Часовой пояс: UTC + 3


Вы не можете начинать темы
Вы не можете отвечать на сообщения
Вы не можете редактировать свои сообщения
Вы не можете удалять свои сообщения
Вы не можете голосовать в опросах
Вы не можете прикреплять файлы к сообщениям
Вы не можете скачивать файлы