(Classical) Flecha, Correa de Arrauxo, Aguilera de Heredia - Ensaladas (Valencia Studium Musicae, Hesperion XX, Jordi Savall) - 1987, FLAC (image+.cue) lossless


Статистика раздачи [Обновить пиров]
Размер:  246 MB   |    Зарегистрирован:  8 месяцев 19 дней   |    Скачан:  0 раз

Полного источника не было: Никогда

 
   
 
 
 

[Цитировать]

Flecha, Correa de Arrauxo, Aguilera de Heredia - Ensaladas (Jordi Savall)
Жанр: Classical
Страна-производитель диска: France
Год издания диска: 1987
Издатель (лейбл): Astree
Номер по каталогу: E 7742
Дата записи: 1987
Аудиокодек: FLAC
Тип рипа: image+.cue
Битрейт аудио: lossless
Продолжительность: 52:45
Источник: собственный рип
сайт-источник/ник/другое: Из личной коллекции
Наличие сканов в содержимом раздачи: да
Треклист:
1. Mateo Flecha (ca. 1481-1553) - La Justa
2. Francisco Correa de Arauxo (ca. 1575-1663) - Batalla des Morales
3. Mateo Flecha (ca. 1481-1553) - El Fuego
4. Sebastián Aguilera de Heredia (ca. 1575-1627) - Ensalada
5. Mateo Flecha (ca. 1481-1553) - La Bomba
Исполнители:
Orchestra: Valencia Studium Musicae, Hespèrion XX
Conductor: Jordi Savall

Лог создания рипа

Exact Audio Copy V1.0 beta 3 from 29. August 2011
EAC extraction logfile from 29. January 2015, 21:24
Hesperion XX, Jordi Savall / Ensaladas
Used drive : HL-DT-STDVDRAM GSA-T40N Adapter: 0 ID: 0
Read mode : Secure
Utilize accurate stream : Yes
Defeat audio cache : Yes
Make use of C2 pointers : No
Read offset correction : 667
Overread into Lead-In and Lead-Out : No
Fill up missing offset samples with silence : Yes
Delete leading and trailing silent blocks : No
Null samples used in CRC calculations : Yes
Used interface : Native Win32 interface for Win NT & 2000
Used output format : User Defined Encoder
Selected bitrate : 32 kBit/s
Quality : High
Add ID3 tag : No
Command line compressor : C:\Program Files\Exact Audio Copy\Flac\flac.exe
Additional command line options : -V -8 -T "Date=%year%" -T "Genre=%genre%" %source%
TOC of the extracted CD
Track | Start | Length | Start sector | End sector
---------------------------------------------------------
1 | 0:00.32 | 19:24.15 | 32 | 87346
2 | 19:24.47 | 5:30.48 | 87347 | 112144
3 | 24:55.20 | 19:25.50 | 112145 | 199569
4 | 44:20.70 | 5:29.60 | 199570 | 224304
5 | 49:50.55 | 2:53.10 | 224305 | 237289
Range status and errors
Selected range
Filename D:\Rip\Jordi_Savall-Ensaladas-1987(Astree,7742)\Hesperion XX, Jordi Savall - Ensaladas.wav
Peak level 87.2 %
Extraction speed 4.1 X
Range quality 100.0 %
Test CRC B63E7914
Copy CRC B63E7914
Copy OK
No errors occurred
AccurateRip summary
Track 1 accurately ripped (confidence 2) [AB4CC4C0] (AR v2)
Track 2 accurately ripped (confidence 2) [17F8EA12] (AR v2)
Track 3 accurately ripped (confidence 2) [2ECFE295] (AR v2)
Track 4 accurately ripped (confidence 2) [53F869A1] (AR v2)
Track 5 accurately ripped (confidence 2) [A41B3C5D] (AR v2)
All tracks accurately ripped
End of status report
==== Log checksum D1F970272F1F4A70B721BA258E0F3FE8ECE74841448E4BAA738526BC0906343B ====

Содержание индексной карты (.CUE)

REM GENRE classical
REM DISCID 4B0C5B05
REM COMMENT "ExactAudioCopy v1.0b3"
PERFORMER "Hesperion XX, Jordi Savall"
TITLE "Ensaladas"
FILE "Hesperion XX, Jordi Savall - Ensaladas.flac" WAVE
TRACK 01 AUDIO
TITLE "La Justa (Ensalada)"
PERFORMER "Flecha L'Ancien"
INDEX 00 00:00:00
INDEX 01 00:00:32
TRACK 02 AUDIO
TITLE "Batalla de Morales (Instrumental)"
PERFORMER "Correa de Arrauxo"
INDEX 00 19:13:65
INDEX 01 19:24:47
TRACK 03 AUDIO
TITLE "El Fuego (Ensalada)"
PERFORMER "Flecha L'Ancien"
INDEX 00 24:43:65
INDEX 01 24:55:20
TRACK 04 AUDIO
TITLE "Ensalada (Instrumental)"
PERFORMER "Aguilera de Heredia"
INDEX 00 44:09:65
INDEX 01 44:20:70
TRACK 05 AUDIO
TITLE "La Bomba (Ensalada)"
PERFORMER "Flecha L'Ancien"
INDEX 00 49:39:65
INDEX 01 49:50:55
Доп. информация: Ensaladas - XVI-XVII век.
[teatrix.ru].t20254.torrent 
Торрент: Зарегистрирован [ 2016-03-19 20:42 ] · 3948B187D8156AD79BA169528F3BE9B25A2F5D89

Скачать .torrent

Скачать

20 KB

Статус: проверено
Скачан: 0 раз
Размер: 246 MB
terms.php



Быстрый ответ

Имя:

      
Для отправки сообщений необходимо включить JavaScript
Показать сообщения:    

Текущее время: 08-Дек 07:03

Часовой пояс: UTC + 3


Вы можете начинать темы
Вы можете отвечать на сообщения
Вы не можете редактировать свои сообщения
Вы не можете удалять свои сообщения
Вы не можете голосовать в опросах
Вы не можете прикреплять файлы к сообщениям
Вы можете скачивать файлы