(Classical) Charpentier - Canticum ad Beatam Virginem Mariam (Le Concert des Nations, Jordi Savall) - 1999, FLAC (image+.cue) lossless


Статистика раздачи [Обновить пиров]
Размер:  332 MB   |    Зарегистрирован:  8 месяцев 17 дней   |    Скачан:  0 раз

Полного источника не было: Никогда

 
   
 
 
 

[Цитировать]

Charpentier - Canticum ad Beatam Virginem Mariam (Le Concert des Nations, Jordi Savall)
Жанр: Classical
Страна-производитель диска: Austria
Год издания диска: 1999
Издатель (лейбл): Astree
Номер по каталогу: ES 9929
Дата записи: 1989
Аудиокодек: FLAC
Тип рипа: image+.cue
Битрейт аудио: lossless
Продолжительность: 74:30
Источник: собственный рип
сайт-источник/ник/другое: Из личной коллекции
Наличие сканов в содержимом раздачи: да
Треклист:
Marc-Antoine Charpentier
1. Canticum in honorem beatae Virginis Mariae, oratorio for 5 voices & continuo, H. 400 11:00
2. Symphonie devant Regina (cœli): Prelude a 3, H. 509 / Pour la conception de la Vierge, H. 313 3:37
3. Nativité de la Vierge, motet for 2 voices & continuo, H. 309 4:52
4. Prelude & Salve Regina À Trois Voix Pareilles, H 23 8:20
5. Pour La Fête De L'Epiphanie, H 395 7:01
6. Prelude Pour La Magnificat, H 533 - Magnificat, H 80 9:25
7. Stabat Mater Pour Des Religieuses, H 15 12:59
8. Litanies De La Vièrge, H 83 17:10
Исполнители:
Le Concert des Nations
Montserrat Figueras (soprano)
Maria Cristina Kiehr (soprano)
Maite Arruabarrena (soprano)
Gerard Lesne (haute-contre)
John Elwes (tenor)
Josep Cabre (baryton)
Jordi Savall (dessus de viole)
Sergi Casademunt (dessus de viole)
Eunice Brandao (basse de viole)
Lorenz Duftschmid (violone)
Rolf Lislevand (theorbe)
Pierre Hantai (orgue et clavecin)
dir. Jordi Savall

Лог создания рипа

Exact Audio Copy V1.0 beta 3 from 29. August 2011
EAC extraction logfile from 28. January 2015, 20:10
Marc-Antoine Charpentier / Canticum ad Beatam Virginem Mariam
Used drive : HL-DT-STDVDRAM GSA-T40N Adapter: 0 ID: 0
Read mode : Secure
Utilize accurate stream : Yes
Defeat audio cache : Yes
Make use of C2 pointers : No
Read offset correction : 667
Overread into Lead-In and Lead-Out : No
Fill up missing offset samples with silence : Yes
Delete leading and trailing silent blocks : No
Null samples used in CRC calculations : Yes
Used interface : Native Win32 interface for Win NT & 2000
Used output format : User Defined Encoder
Selected bitrate : 32 kBit/s
Quality : High
Add ID3 tag : No
Command line compressor : C:\Program Files\Exact Audio Copy\Flac\flac.exe
Additional command line options : -V -8 -T "Date=%year%" -T "Genre=%genre%" %source%
TOC of the extracted CD
Track | Start | Length | Start sector | End sector
---------------------------------------------------------
1 | 0:00.32 | 11:02.55 | 32 | 49736
2 | 11:03.12 | 3:38.00 | 49737 | 66086
3 | 14:41.12 | 4:53.63 | 66087 | 88124
4 | 19:35.00 | 8:22.22 | 88125 | 125796
5 | 27:57.22 | 7:02.70 | 125797 | 157516
6 | 35:00.17 | 9:27.63 | 157517 | 200104
7 | 44:28.05 | 13:02.22 | 200105 | 258776
8 | 57:30.27 | 17:14.63 | 258777 | 336389
Range status and errors
Selected range
Filename D:\Rip\Charpentier.Canticum_ad_Beatam,Virginem_Mariam-Jordi_Savall,1989(Astree,9929)\Marc-Antoine Charpentier - Canticum ad Beatam Virginem Mariam.wav
Peak level 97.4 %
Extraction speed 4.4 X
Range quality 100.0 %
Test CRC 2144EBC8
Copy CRC 2144EBC8
Copy OK
No errors occurred
AccurateRip summary
Track 1 accurately ripped (confidence 4) [BF5E12D8] (AR v2)
Track 2 accurately ripped (confidence 4) [336E3A73] (AR v2)
Track 3 accurately ripped (confidence 4) [3DB1E9A5] (AR v2)
Track 4 accurately ripped (confidence 4) [6C99A535] (AR v2)
Track 5 accurately ripped (confidence 4) [98A35C86] (AR v2)
Track 6 accurately ripped (confidence 4) [405DBC07] (AR v2)
Track 7 accurately ripped (confidence 3) [F1EB7D57] (AR v2)
Track 8 accurately ripped (confidence 4) [A4E9BD50] (AR v2)
All tracks accurately ripped
End of status report
==== Log checksum A97DC1AA5498E183BEE09B1D745B459C0414DB4CD252B31EB1E5E044BBB84168 ====

Содержание индексной карты (.CUE)

REM GENRE Classique
REM DATE 1989
REM DISCID 6F118508
REM COMMENT "ExactAudioCopy v1.0b3"
PERFORMER "Marc-Antoine Charpentier"
TITLE "Canticum ad Beatam Virginem Mariam"
FILE "Marc-Antoine Charpentier - Canticum ad Beatam Virginem Mariam.flac" WAVE
TRACK 01 AUDIO
TITLE "Canticum in honorem Beatae Virginis Mariae H. 400"
PERFORMER "Marc-Antoine Charpentier"
INDEX 00 00:00:00
INDEX 01 00:00:32
TRACK 02 AUDIO
TITLE "Symphonie devant Regina H. 509-313"
PERFORMER "Marc-Antoine Charpentier"
INDEX 00 10:52:67
INDEX 01 11:03:12
TRACK 03 AUDIO
TITLE "Nativite de la Vierge 'Sicut spina rosam' H. 309"
PERFORMER "Marc-Antoine Charpentier"
INDEX 00 14:30:50
INDEX 01 14:41:12
TRACK 04 AUDIO
TITLE "Prelude pour Salve Regina - Salve Regina H. 23"
PERFORMER "Marc-Antoine Charpentier"
INDEX 00 19:25:30
INDEX 01 19:35:00
TRACK 05 AUDIO
TITLE "Pour la fete de l'Epiphanie H. 395"
PERFORMER "Marc-Antoine Charpentier"
INDEX 00 27:47:27
INDEX 01 27:57:22
TRACK 06 AUDIO
TITLE "Prelude pour le second Magnificat (…) H. 533-80 (Magnificat)"
PERFORMER "Marc-Antoine Charpentier"
INDEX 00 34:50:20
INDEX 01 35:00:17
TRACK 07 AUDIO
TITLE "Stabat Mater pour des religieuses H. 15"
PERFORMER "Marc-Antoine Charpentier"
INDEX 00 44:17:70
INDEX 01 44:28:05
TRACK 08 AUDIO
TITLE "Litanies de la Vierge a six voix et deux dessus de violes H. 83"
PERFORMER "Marc-Antoine Charpentier"
INDEX 00 57:19:37
INDEX 01 57:30:27
Доп. информация: Recorded at the Église Notre-Dame du Travail, Paris, France , in February 1989
[teatrix.ru].t20255.torrent 
Торрент: Зарегистрирован [ 2016-03-19 20:42 ] · BB386A5D1B27A987AA104EA67FD7A898C955AA1C

Скачать .torrent

Скачать

15 KB

Статус: проверено
Скачан: 0 раз
Размер: 332 MB
terms.php



Быстрый ответ

Имя:

      
Для отправки сообщений необходимо включить JavaScript
Показать сообщения:    

Текущее время: 05-Дек 23:37

Часовой пояс: UTC + 3


Вы можете начинать темы
Вы можете отвечать на сообщения
Вы не можете редактировать свои сообщения
Вы не можете удалять свои сообщения
Вы не можете голосовать в опросах
Вы не можете прикреплять файлы к сообщениям
Вы можете скачивать файлы