Николай Симонов. Герой не нашего времени (Ирина Полухинских) [2011, Документальный, история, кинематограф, SATRip]


Статистика раздачи [Обновить пиров]
Размер:  537 MB   |    Зарегистрирован:  8 месяцев 18 дней   |    Скачан:  0 раз

Полного источника не было: Никогда

 
   
 
 
 

[Цитировать]

Николай Симонов. Герой не нашего времени
Дата/Год выпуска: 2011
Страна: Россия, ГТРК "Санкт-Петербург"
Жанр: Документальный, история, кинематограф
Продолжительность: 00:38:45
Перевод: Не требуется
Русские субтитры: нет
Режиссер: Ирина Полухинских
Описание: Сегодня лишь завзятые театралы могут вспомнить, кто такой Николай Симонов, и уж совсем немногие могут поделиться впечатлениями от его игры. Время идет, и старые имена забываются. Так что же это было за явление в русском театре – Николай Симонов? Кто были его герои? Почему, глядя на старую затертую пленку невольно поддаешься обаянию этой крупномасштабной личности? С воспоминаниями об актере в передаче выступают режиссеры Александр Белинский и Влад Фурман, актер Николай Мортон, художественный руководитель Александринского театра Валерий Фокин, главный режиссер Петербургского Небольшого драматического театра Лев Эренбург. В программу включены сцены из спектаклей с участием Николая Симонова.
качество: SATRip
формат: AVI
Видео: 688x512 (1.34:1), 25 fps, XviD build 50 ~1799 kbps avg, 0.20 bit/pixel
Аудио: 48 kHz, MPEG Layer 3, 2 ch, ~128.00 kbps avg

MediaInfo

Complete name                            : C:\Users\Home\Desktop\Razdacha\Николай Симонов.Герой не нашего времени.2011.SATRip.avi
Format : AVI
Format/Info : Audio Video Interleave
File size : 537 MiB
Duration : 38mn 45s
Overall bit rate : 1 938 Kbps
Writing application : VirtualDubMod 1.5.10.3 | www.virtualdub-fr.org || (build 2550/release)
Writing library : VirtualDubMod build 2550/release
Video
ID : 0
Format : MPEG-4 Visual
Format profile : Advanced Simple@L5
Format settings, BVOP : 2
Format settings, QPel : No
Format settings, GMC : No warppoints
Format settings, Matrix : Default (MPEG)
Codec ID : XVID
Codec ID/Hint : XviD
Duration : 38mn 45s
Bit rate : 1 800 Kbps
Width : 688 pixels
Height : 512 pixels
Display aspect ratio : 4:3
Frame rate : 25.000 fps
Color space : YUV
Chroma subsampling : 4:2:0
Bit depth : 8 bits
Scan type : Progressive
Compression mode : Lossy
Bits/(Pixel*Frame) : 0.204
Stream size : 499 MiB (93%)
Writing library : XviD 1.2.1 (UTC 2008-12-04)
Audio
ID : 1
Format : MPEG Audio
Format version : Version 1
Format profile : Layer 3
Codec ID : 55
Codec ID/Hint : MP3
Duration : 38mn 45s
Bit rate mode : Constant
Bit rate : 128 Kbps
Channel count : 2 channels
Sampling rate : 48.0 KHz
Compression mode : Lossy
Stream size : 35.5 MiB (7%)
Alignment : Aligned on interleaves
Interleave, duration : 40 ms (1.00 video frame)
Interleave, preload duration : 504 ms
Writing library : LAME3.99r
Encoding settings : -m s -V 4 -q 2 -lowpass 17 -b 128

Скриншоты

[teatrix.ru].t20258.torrent 
Торрент: Зарегистрирован [ 2016-03-19 20:41 ] · 68A0DD8058F0595FD29EA8CC63B66A8AB7C72B5A

Скачать .torrent

Скачать

11 KB

Статус: проверено
Скачан: 0 раз
Размер: 537 MB
terms.php



Быстрый ответ

Имя:

      
Для отправки сообщений необходимо включить JavaScript
Показать сообщения:    

Текущее время: 07-Дек 17:30

Часовой пояс: UTC + 3


Вы можете начинать темы
Вы можете отвечать на сообщения
Вы не можете редактировать свои сообщения
Вы не можете удалять свои сообщения
Вы не можете голосовать в опросах
Вы не можете прикреплять файлы к сообщениям
Вы можете скачивать файлы