(Classical / Orchestral) Johannes Brahms - Ungarische Tanze / Hungarian Dances / Йоханнес Брамс - Венгерские танцы (Budapest Festival Orchestra, Ivan Fischer, 1998) - 1999, FLAC (image+.cue) lossless


 

[Цитировать]

Johannes Brahms | Йоханнес Брамс
(1833–1897)



Ungarische Tänze | Hungarian Dances | Венгерские танцы


Budapesti Fesztiválzenekar (Budapest Festival Orchestra)
Iván Fischer conductor


Жанр: Classical / Orchestral
Дата и место записи: Italian Institute, Budapest, XI.1998
Формат записи: DDD, Stereo
Год издания диска: 1999
Издатель (лейбл): Philips
Номер по каталогу: 462 589-2
Аудиокодек: FLAC
Тип рипа: image+.cue
Битрейт аудио: lossless
Продолжительность: 56:20
Наличие сканов в содержимом раздачи: да
Источник: блог OdeonMusic


Tracklist / Треклист
Ungarische Tänze, WoO 1 - 56:20
Nr. 1 g-moll. Allegro molto (Brahms) - 3:17
  • Nr. 2 d-moll. Allegro non assai (Fischer) - 4:05
  • Nr. 3 F-dur. Allegretto (Brahms) - 2:13
  • Nr. 4 f-moll. Poco sostenuto (Fischer) - 5:01
  • Nr. 5 fis-moll. Allegro (Fischer) - 2:34
  • Nr. 6 Des-dur. Vivace (Parlow) - 3:08
  • Nr. 7 F-dur. Allegretto (Fischer) - 1:52
  • Nr. 8 a-moll. Presto (Schollum) - 3:16
  • Nr. 9 e-moll. Allegro non troppo (Schollum) - 2:01
  • Nr. 10 E-dur. Presto (Brahms) - 1:52
  • Nr. 11 F-dur. Poco andante (Fischer) - 3:52
  • Nr. 12 d-moll. Presto (Fischer) - 2:33
  • Nr. 13 D-dur. Andantino grazioso (Fischer) - 1:31
  • Nr. 14 d-moll. Un poco andante (Fischer) - 2:34
  • Nr. 15 B-dur. Allegretto grazioso (Hidas) - 2:43
  • Nr. 16 f-moll. Con moto (Parlow) - 2:57
  • Nr. 17 fis-moll. Andantino (Hidas) - 3:15
  • Nr. 18 D-dur. Molto vivace (Hidas) - 1:28
  • Nr. 19 h-moll. Allegretto (Dvořák) - 1:40
  • Nr. 20 e-moll. Poco allegretto (Dvořák) - 2:59
  • Nr. 21 e-moll. Vivace (Dvořák) - 1:29
    В скобках указаны авторы оркестровок.

    -

    EAC log / Отчёт EAC

    Exact Audio Copy V1.0 beta 3 from 29. August 2011
    EAC extraction logfile from 10. December 2014, 14:17
    Iván Fischer / Brahms - Hungarian Dances - Ivan Fischer
    Used drive : TSSTcorpCDDVDW SH-222BB Adapter: 2 ID: 1
    Read mode : Secure
    Utilize accurate stream : Yes
    Defeat audio cache : Yes
    Make use of C2 pointers : No
    Read offset correction : 6
    Overread into Lead-In and Lead-Out : No
    Fill up missing offset samples with silence : Yes
    Delete leading and trailing silent blocks : No
    Null samples used in CRC calculations : Yes
    Used interface : Native Win32 interface for Win NT & 2000
    Used output format : User Defined Encoder
    Selected bitrate : 896 kBit/s
    Quality : High
    Add ID3 tag : No
    Command line compressor : C:\Program Files\Exact Audio Copy\FLAC\FLAC.EXE
    Additional command line options : -8 -V -T "TITLE=%title%" -T "ARTIST=%artist%" -T "ALBUMARTIST=%albumartist%" -T "ALBUM=%albumtitle%" -T "DATE=%year%" -T "TRACKNUMBER=%tracknr%" -T "TRACKTOTAL=%numtracks%" -T "GENRE=%genre%" -T "COMMENT=%comment%" -T "PERFORMER=%albuminterpret%" -T "COMPOSER=%composer%" %source% -o %dest%
    TOC of the extracted CD
    Track | Start | Length | Start sector | End sector
    ---------------------------------------------------------
    1 | 0:00.32 | 3:17.00 | 32 | 14806
    2 | 3:17.32 | 4:05.00 | 14807 | 33181
    3 | 7:22.32 | 2:12.38 | 33182 | 43119
    4 | 9:34.70 | 5:01.37 | 43120 | 65731
    5 | 14:36.32 | 2:33.38 | 65732 | 77244
    6 | 17:09.70 | 3:08.37 | 77245 | 91381
    7 | 20:18.32 | 1:51.38 | 91382 | 99744
    8 | 22:09.70 | 3:16.00 | 99745 | 114444
    9 | 25:25.70 | 2:01.37 | 114445 | 123556
    10 | 27:27.32 | 1:51.38 | 123557 | 131919
    11 | 29:18.70 | 3:52.00 | 131920 | 149319
    12 | 33:10.70 | 2:33.37 | 149320 | 160831
    13 | 35:44.32 | 1:31.00 | 160832 | 167656
    14 | 37:15.32 | 2:34.00 | 167657 | 179206
    15 | 39:49.32 | 2:43.00 | 179207 | 191431
    16 | 42:32.32 | 2:56.38 | 191432 | 204669
    17 | 45:28.70 | 3:15.37 | 204670 | 219331
    18 | 48:44.32 | 1:27.38 | 219332 | 225894
    19 | 50:11.70 | 1:40.37 | 225895 | 233431
    20 | 51:52.32 | 2:59.00 | 233432 | 246856
    21 | 54:51.32 | 1:29.00 | 246857 | 253531
    Range status and errors
    Selected range
    Filename G:\Ripped general\[7613] Brahms – Hungarian Dances – Ivan Fischer\Brahms - Hungarian Dances - Ivan Fischer.wav
    Peak level 100.0 %
    Extraction speed 2.2 X
    Range quality 99.9 %
    Test CRC CB37E89B
    Copy CRC CB37E89B
    Copy OK
    No errors occurred
    AccurateRip summary
    Track 1 accurately ripped (confidence 10) [3CB80614] (AR v2)
    Track 2 accurately ripped (confidence 10) [C9738D79] (AR v2)
    Track 3 accurately ripped (confidence 10) [5BE4B871] (AR v2)
    Track 4 accurately ripped (confidence 10) [CA6A5021] (AR v2)
    Track 5 accurately ripped (confidence 10) [398C01B6] (AR v2)
    Track 6 accurately ripped (confidence 10) [DAA2A131] (AR v2)
    Track 7 accurately ripped (confidence 10) [7B419E82] (AR v2)
    Track 8 accurately ripped (confidence 10) [8A61814A] (AR v2)
    Track 9 accurately ripped (confidence 10) [B62587FC] (AR v2)
    Track 10 accurately ripped (confidence 10) [C1065A2D] (AR v2)
    Track 11 accurately ripped (confidence 10) [DE12D67F] (AR v2)
    Track 12 accurately ripped (confidence 10) [B1DFC350] (AR v2)
    Track 13 accurately ripped (confidence 10) [4ECE29AA] (AR v2)
    Track 14 accurately ripped (confidence 10) [D3C67B30] (AR v2)
    Track 15 accurately ripped (confidence 10) [9C87C71B] (AR v2)
    Track 16 accurately ripped (confidence 10) [BF3C040D] (AR v2)
    Track 17 accurately ripped (confidence 10) [85584DA7] (AR v2)
    Track 18 accurately ripped (confidence 10) [2B63534A] (AR v2)
    Track 19 accurately ripped (confidence 10) [612564DA] (AR v2)
    Track 20 accurately ripped (confidence 10) [FB8F6E30] (AR v2)
    Track 21 accurately ripped (confidence 10) [5DCA09E0] (AR v2)
    All tracks accurately ripped
    End of status report
    ==== Log checksum 6C058D5475EEFAADE4C38239B125B8DD7506471D94BC90DF6B6178F06A3D3FD3 ====

    auCDtect Task Manager log / Отчёт auCDtect Task Manager

    -----------------------
    DON'T MODIFY THIS FILE
    -----------------------
    PERFORMER: auCDtect Task Manager, ver. 1.5.1RC3 build 1.5.1.4
    Copyright (c) 2008-2010 y-soft. All rights reserved
    ANALYZER: auCDtect: CD records authenticity detector, version 0.8.2
    Copyright (c) 2004 Oleg Berngardt. All rights reserved.
    Copyright (c) 2004 Alexander Djourik. All rights reserved.
    FILE: Brahms. Ungarische Taenze (Ivan Fischer, 1998).flac
    Size: 253403207 Hash: 68BE61FB3370AAB5A33FFA22D0B8C816 Accuracy: -m0
    Conclusion: CDDA 100%
    Signature: 1CAD08C353DC836282136E4F8AF3B9133DA2D384

    CUETools log / Отчёт CUETools

    [CUETools log; Date: 01.02.2015 10:08:53; Version: 2.1.4]
    Pregap length 00:00:32.
    [AccurateRip ID: 002e3185-02b46c9a-1d0d3415] found.
    Track [ CRC | V2 ] Status
    01 [6fd687a1|3cb80614] (08+12/42) Accurately ripped
    02 [a3b42aa1|c9738d79] (07+12/41) Accurately ripped
    03 [b73e3032|5be4b871] (07+12/41) Accurately ripped
    04 [4f77ed62|ca6a5021] (07+12/41) Accurately ripped
    05 [dee325a8|398c01b6] (07+12/41) Accurately ripped
    06 [78d56103|daa2a131] (07+12/41) Accurately ripped
    07 [79f68ccc|7b419e82] (07+12/41) Accurately ripped
    08 [f1ff331c|8a61814a] (07+12/41) Accurately ripped
    09 [1e11e6b9|b62587fc] (07+12/41) Accurately ripped
    10 [dd560b9a|c1065a2d] (07+12/41) Accurately ripped
    11 [03f3e3c1|de12d67f] (07+12/41) Accurately ripped
    12 [c32b5432|b1dfc350] (07+12/41) Accurately ripped
    13 [ec208613|4ece29aa] (07+12/41) Accurately ripped
    14 [b0e31470|d3c67b30] (07+12/41) Accurately ripped
    15 [0b6df7e6|9c87c71b] (07+12/41) Accurately ripped
    16 [fc6edeac|bf3c040d] (07+12/41) Accurately ripped
    17 [ab661faa|85584da7] (07+12/41) Accurately ripped
    18 [e385ec6c|2b63534a] (07+12/41) Accurately ripped
    19 [61209a62|612564da] (07+12/41) Accurately ripped
    20 [e41836b4|fb8f6e30] (07+12/41) Accurately ripped
    21 [f435f75e|5dca09e0] (07+12/41) Accurately ripped
    Offsetted by -1372:
    01 [4ca688ae] (03/42) Accurately ripped
    02 [c3cf3dbd] (03/41) Accurately ripped
    03 [1b221d90] (03/41) Accurately ripped
    04 [630961ea] (03/41) Accurately ripped
    05 [d1a40955] (03/41) Accurately ripped
    06 [c09278b3] (03/41) Accurately ripped
    07 [b1d51ff7] (03/41) Accurately ripped
    08 [91def52d] (03/41) Accurately ripped
    09 [0abf9824] (03/41) Accurately ripped
    10 [38d9d06c] (03/41) Accurately ripped
    11 [1f84365e] (03/41) Accurately ripped
    12 [ac17196d] (03/41) Accurately ripped
    13 [5acc25da] (03/41) Accurately ripped
    14 [a4b7d739] (03/41) Accurately ripped
    15 [cf116613] (03/41) Accurately ripped
    16 [4404ff24] (03/41) Accurately ripped
    17 [769d0d20] (03/41) Accurately ripped
    18 [9dfbcbf0] (03/41) Accurately ripped
    19 [8b05e529] (03/41) Accurately ripped
    20 [b59f568f] (03/41) Accurately ripped
    21 [5e201a7b] (03/41) Accurately ripped
    Offsetted by -696:
    01 [f571fe2d] (06/42) Accurately ripped
    02 [12f11bdc] (06/41) Accurately ripped
    03 [94fab9f7] (06/41) Accurately ripped
    04 [1a234d12] (06/41) Accurately ripped
    05 [ccde7349] (06/41) Accurately ripped
    06 [19fe6390] (06/41) Accurately ripped
    07 [ce3c6335] (06/41) Accurately ripped
    08 [e4009acf] (06/41) Accurately ripped
    09 [98b716ef] (06/41) Accurately ripped
    10 [707efa03] (06/41) Accurately ripped
    11 [cb2550d1] (06/41) Accurately ripped
    12 [b788ce7f] (06/41) Accurately ripped
    13 [0b91e346] (06/41) Accurately ripped
    14 [fd5cbfc1] (06/41) Accurately ripped
    15 [185dd658] (06/41) Accurately ripped
    16 [27f3f672] (06/41) Accurately ripped
    17 [81c11dba] (06/41) Accurately ripped
    18 [6c08782f] (06/41) Accurately ripped
    19 [7251d518] (06/41) Accurately ripped
    20 [4104185e] (06/41) Accurately ripped
    21 [bc1bcbb5] (06/41) Accurately ripped
    Offsetted by -664:
    01 [42264459] (00/42) No match (V2 was not tested)
    02 [e9d0cb54] (00/41) No match (V2 was not tested)
    03 [7c0a8ce5] (00/41) No match (V2 was not tested)
    04 [f7afa1d5] (00/41) No match (V2 was not tested)
    05 [886782a0] (00/41) No match (V2 was not tested)
    06 [5733bebd] (00/41) No match (V2 was not tested)
    07 [65075313] (00/41) No match (V2 was not tested)
    08 [042fd058] (00/41) No match (V2 was not tested)
    09 [5d35c021] (00/41) No match (V2 was not tested)
    10 [4f18c136] (00/41) No match (V2 was not tested)
    11 [00c8cf8f] (00/41) No match (V2 was not tested)
    12 [60b9374b] (00/41) No match (V2 was not tested)
    13 [e9e8e5bb] (00/41) No match (V2 was not tested)
    14 [331badef] (00/41) No match (V2 was not tested)
    15 [40c65fec] (00/41) No match (V2 was not tested)
    16 [303b6cc2] (00/41) No match (V2 was not tested)
    17 [3e6ec7a4] (00/41) No match (V2 was not tested)
    18 [b68f26e8] (00/41) No match (V2 was not tested)
    19 [28495e68] (00/41) No match (V2 was not tested)
    20 [46edc359] (00/41) No match (V2 was not tested)
    21 [6c14f7ad] (00/41) No match (V2 was not tested)
    Track Peak [ CRC32 ] [W/O NULL] [ LOG ]
    -- 100,0 [CB37E89B] [0DC25545] CRC32
    01 74,9 [3EA909DA] [10E806C6]
    02 88,0 [B4C3DDCA] [BE5C050F]
    03 84,8 [A69B2F7F] [19CE6EED]
    04 69,4 [415DC909] [4C1199B6]
    05 99,5 [32E3AE1B] [9133E83B]
    06 88,0 [11776F83] [6E96CDD9]
    07 43,4 [A3D089C5] [FBCB02DB]
    08 84,9 [891957AE] [E8569A5A]
    09 73,9 [4B748E4E] [5C77CA3E]
    10 94,4 [0DB7AB48] [313D3171]
    11 29,5 [3BD38B64] [666D52BA]
    12 60,0 [92145EDA] [D11A5342]
    13 28,7 [A5DA55CC] [5A7158D6]
    14 31,5 [7A9FF5F3] [A73CAB35]
    15 82,1 [73AFAA79] [5C92F73A]
    16 53,3 [AA1DE17F] [29E87914]
    17 98,8 [16E8BD1A] [FFD91F5B]
    18 100,0 [8274A18E] [04AC8A8E]
    19 100,0 [9BE3DD77] [C0F8CF1C]
    20 80,1 [8E4C3697] [C0C97F6B]
    21 89,6 [9B310690] [9C27B2E7]

    CUE sheet

    TITLE "Johannes Brahms: Ungarische Tänze"
    PERFORMER "Iván Fischer"
    REM GENRE Classical
    REM DISCID 1D0D3415
    REM COMMENT "ExactAudioCopy v1.0b3"
    CATALOG 0028946258927
    FILE "Brahms. Ungarische Taenze (Ivan Fischer, 1998).flac" WAVE
    TRACK 01 AUDIO
    TITLE "Ungarische Tänze, WoO 1: Nr. 1 g-moll. Allegro molto (Brahms)"
    PERFORMER "Budapest Festival Orchestra. Iván Fischer, conductor"
    REM DATE 1998
    INDEX 00 00:00:00
    INDEX 01 00:00:32
    TRACK 02 AUDIO
    TITLE "Ungarische Tänze, WoO 1: Nr. 2 d-moll. Allegro non assai (Fischer)"
    PERFORMER "Budapest Festival Orchestra. Iván Fischer, conductor"
    REM DATE 1998
    INDEX 00 03:14:32
    INDEX 01 03:17:32
    TRACK 03 AUDIO
    TITLE "Ungarische Tänze, WoO 1: Nr. 3 F-dur. Allegretto (Brahms)"
    PERFORMER "Budapest Festival Orchestra. Iván Fischer, conductor"
    REM DATE 1998
    INDEX 00 07:19:32
    INDEX 01 07:22:32
    TRACK 04 AUDIO
    TITLE "Ungarische Tänze, WoO 1: Nr. 4 f-moll. Poco sostenuto (Fischer)"
    PERFORMER "Budapest Festival Orchestra. Iván Fischer, conductor"
    REM DATE 1998
    INDEX 00 09:30:70
    INDEX 01 09:34:70
    TRACK 05 AUDIO
    TITLE "Ungarische Tänze, WoO 1: Nr. 5 fis-moll. Allegro (Fischer)"
    PERFORMER "Budapest Festival Orchestra. Iván Fischer, conductor"
    REM DATE 1998
    INDEX 00 14:32:32
    INDEX 01 14:36:32
    TRACK 06 AUDIO
    TITLE "Ungarische Tänze, WoO 1: Nr. 6 Des-dur. Vivace (Parlow)"
    PERFORMER "Budapest Festival Orchestra. Iván Fischer, conductor"
    REM DATE 1998
    INDEX 00 17:06:70
    INDEX 01 17:09:70
    TRACK 07 AUDIO
    TITLE "Ungarische Tänze, WoO 1: Nr. 7 F-dur. Allegretto (Fischer)"
    PERFORMER "Budapest Festival Orchestra. Iván Fischer, conductor"
    REM DATE 1998
    INDEX 00 20:15:70
    INDEX 01 20:18:32
    TRACK 08 AUDIO
    TITLE "Ungarische Tänze, WoO 1: Nr. 8 a-moll. Presto (Schollum)"
    PERFORMER "Budapest Festival Orchestra. Iván Fischer, conductor"
    REM DATE 1998
    INDEX 00 22:05:32
    INDEX 01 22:09:70
    TRACK 09 AUDIO
    TITLE "Ungarische Tänze, WoO 1: Nr. 9 e-moll. Allegro non troppo (Schollum)"
    PERFORMER "Budapest Festival Orchestra. Iván Fischer, conductor"
    REM DATE 1998
    INDEX 00 25:22:32
    INDEX 01 25:25:70
    TRACK 10 AUDIO
    TITLE "Ungarische Tänze, WoO 1: Nr. 10 E-dur. Presto (Brahms)"
    PERFORMER "Budapest Festival Orchestra. Iván Fischer, conductor"
    REM DATE 1998
    INDEX 00 27:25:32
    INDEX 01 27:27:32
    TRACK 11 AUDIO
    TITLE "Ungarische Tänze, WoO 1: Nr. 11 F-dur. Poco andante (Fischer)"
    PERFORMER "Budapest Festival Orchestra. Iván Fischer, conductor"
    REM DATE 1998
    INDEX 00 29:14:32
    INDEX 01 29:18:70
    TRACK 12 AUDIO
    TITLE "Ungarische Tänze, WoO 1: Nr. 12 d-moll. Presto (Fischer)"
    PERFORMER "Budapest Festival Orchestra. Iván Fischer, conductor"
    REM DATE 1998
    INDEX 00 33:06:32
    INDEX 01 33:10:70
    TRACK 13 AUDIO
    TITLE "Ungarische Tänze, WoO 1: Nr. 13 D-dur. Andantino grazioso (Fischer)"
    PERFORMER "Budapest Festival Orchestra. Iván Fischer, conductor"
    REM DATE 1998
    INDEX 00 35:42:32
    INDEX 01 35:44:32
    TRACK 14 AUDIO
    TITLE "Ungarische Tänze, WoO 1: Nr. 14 d-moll. Un poco andante (Fischer)"
    PERFORMER "Budapest Festival Orchestra. Iván Fischer, conductor"
    REM DATE 1998
    INDEX 00 37:11:70
    INDEX 01 37:15:32
    TRACK 15 AUDIO
    TITLE "Ungarische Tänze, WoO 1: Nr. 15 B-dur. Allegretto grazioso (Hidas)"
    PERFORMER "Budapest Festival Orchestra. Iván Fischer, conductor"
    REM DATE 1998
    INDEX 00 39:45:32
    INDEX 01 39:49:32
    TRACK 16 AUDIO
    TITLE "Ungarische Tänze, WoO 1: Nr. 16 f-moll. Con moto (Parlow)"
    PERFORMER "Budapest Festival Orchestra. Iván Fischer, conductor"
    REM DATE 1998
    INDEX 00 42:29:32
    INDEX 01 42:32:32
    TRACK 17 AUDIO
    TITLE "Ungarische Tänze, WoO 1: Nr. 17 fis-moll. Andantino (Hidas)"
    PERFORMER "Budapest Festival Orchestra. Iván Fischer, conductor"
    REM DATE 1998
    INDEX 00 45:25:70
    INDEX 01 45:28:70
    TRACK 18 AUDIO
    TITLE "Ungarische Tänze, WoO 1: Nr. 18 D-dur. Molto vivace (Hidas)"
    PERFORMER "Budapest Festival Orchestra. Iván Fischer, conductor"
    REM DATE 1998
    INDEX 00 48:41:32
    INDEX 01 48:44:32
    TRACK 19 AUDIO
    TITLE "Ungarische Tänze, WoO 1: Nr. 19 h-moll. Allegretto (Dvořák)"
    PERFORMER "Budapest Festival Orchestra. Iván Fischer, conductor"
    REM DATE 1998
    INDEX 00 50:08:32
    INDEX 01 50:11:70
    TRACK 20 AUDIO
    TITLE "Ungarische Tänze, WoO 1: Nr. 20 e-moll. Poco allegretto (Dvořák)"
    PERFORMER "Budapest Festival Orchestra. Iván Fischer, conductor"
    REM DATE 1998
    INDEX 00 51:49:32
    INDEX 01 51:52:32
    TRACK 21 AUDIO
    TITLE "Ungarische Tänze, WoO 1: Nr. 21 e-moll. Vivace (Dvořák)"
    PERFORMER "Budapest Festival Orchestra. Iván Fischer, conductor"
    REM DATE 1998
    INDEX 00 54:48:32
    INDEX 01 54:51:32
    -
    Johannes Brahms — Ungarische Tänze (Iván Fischer, 1985)Johannes Brahms — каталог раздач на rutracker.orgВсе мои раздачи / All my releases



  • Показать сообщения:    

    Текущее время: 03-Дек 03:22

    Часовой пояс: UTC + 3


    Вы не можете начинать темы
    Вы не можете отвечать на сообщения
    Вы не можете редактировать свои сообщения
    Вы не можете удалять свои сообщения
    Вы не можете голосовать в опросах
    Вы не можете прикреплять файлы к сообщениям
    Вы не можете скачивать файлы