Приглашает Борис Ноткин. Пелагея (Сергей Кузин) [2015, Авторская программа, беседа, интервью, SATRip]


Статистика раздачи [Обновить пиров]
Размер:  363 MB   |    Зарегистрирован:  8 месяцев 18 дней   |    Скачан:  0 раз

Полного источника не было: Никогда

 
   
 
 
 

[Цитировать]

Приглашает Борис Ноткин. Пелагея
Дата/Год выпуска: 2015
Страна: Россия, ОАО "ТВ Центр"
Жанр: Авторская программа, беседа, интервью
Продолжительность: 00:24:56
Перевод: Не требуется
Русские субтитры: нет
Режиссер: Сергей Кузин
Рип от:
Описание: В гости к известному ведущему приходят популярные актёры, политики, спортсмены, государственные деятели. Большой журналистский опыт и неизменно доброжелательное отношение к гостям позволяют ведущему затрагивать в беседах практически любые темы: как они добивались успеха, преодолевали трудности, что помогало найти собственный путь, как складывается личная жизнь и каковы эстетические и вкусовые пристрастия гостя… А зрители в этой красочной мозаике могут увидеть примеры для подражания в быту и профессии, образе мыслей и манере поведения.
В очередном выпуске программы "Приглашает Борис Ноткин" певица Пелагея рассказывает, почему единственным неприятным воспоминанием её детства был итальянский вундеркинд Робертино Лоретти, и чему певицу научил проект "Голос"?
качество: SATRip
формат: AVI
Видео: 704x528 (1.33:1), 25 fps, XviD build 50 ~1894 kbps avg, 0.20 bit/pixel
Аудио: 48 kHz, MPEG Layer 3, 2 ch, ~128.00 kbps avg

MediaInfo

Complete name                            : C:\Users\Home\Desktop\Razdacha\Приглашает Б.Ноткин.Пелагея.2015.SATRip.avi
Format : AVI
Format/Info : Audio Video Interleave
File size : 363 MiB
Duration : 24mn 56s
Overall bit rate : 2 032 Kbps
Writing application : VirtualDubMod 1.5.10.3 | www.virtualdub-fr.org || (build 2550/release)
Writing library : VirtualDubMod build 2550/release
Video
ID : 0
Format : MPEG-4 Visual
Format profile : Advanced Simple@L5
Format settings, BVOP : 2
Format settings, QPel : No
Format settings, GMC : No warppoints
Format settings, Matrix : Default (MPEG)
Codec ID : XVID
Codec ID/Hint : XviD
Duration : 24mn 56s
Bit rate : 1 895 Kbps
Width : 704 pixels
Height : 528 pixels
Display aspect ratio : 4:3
Frame rate : 25.000 fps
Color space : YUV
Chroma subsampling : 4:2:0
Bit depth : 8 bits
Scan type : Progressive
Compression mode : Lossy
Bits/(Pixel*Frame) : 0.204
Stream size : 338 MiB (93%)
Writing library : XviD 1.2.1 (UTC 2008-12-04)
Audio
ID : 1
Format : MPEG Audio
Format version : Version 1
Format profile : Layer 3
Codec ID : 55
Codec ID/Hint : MP3
Duration : 24mn 56s
Bit rate mode : Constant
Bit rate : 128 Kbps
Channel count : 2 channels
Sampling rate : 48.0 KHz
Compression mode : Lossy
Stream size : 22.8 MiB (6%)
Alignment : Aligned on interleaves
Interleave, duration : 40 ms (1.00 video frame)
Interleave, preload duration : 504 ms
Writing library : LAME3.99r
Encoding settings : -m s -V 4 -q 2 -lowpass 17 -b 128

Скриншоты

[teatrix.ru].t20261.torrent 
Торрент: Зарегистрирован [ 2016-03-19 20:41 ] · 296396DA8DB9DA5144C449CC7B56BBF8DF5169DB

Скачать .torrent

Скачать

8 KB

Статус: проверено
Скачан: 0 раз
Размер: 363 MB
terms.php



Быстрый ответ

Имя:

      
Для отправки сообщений необходимо включить JavaScript
Показать сообщения:    

Текущее время: 07-Дек 00:53

Часовой пояс: UTC + 3


Вы можете начинать темы
Вы можете отвечать на сообщения
Вы не можете редактировать свои сообщения
Вы не можете удалять свои сообщения
Вы не можете голосовать в опросах
Вы не можете прикреплять файлы к сообщениям
Вы можете скачивать файлы