Курт Вайль - Расцвет (Возвышение) и падение города Махагони (Королевский театр) / Kurt Weill - Rise and fall of the city of Mahagonny (Teatro Real; Alex Olle, Carlus Padrissa; Pablo Heras-Casado; Henschel, Kaasch, White) [2011, Opera, BDRip 720p]


 

[Цитировать]

Курт Вайль - Расцвет (Возвышение) и падение города Махагони / Kurt Weill - Rise and fall of the city of Mahagonny
Год выпуска: 2011
Лейбл: Bel Air Classiques, Teatro Real Madrid
Страна-производитель: Франция
Жанр: Opera
Продолжительность: 02:17:47
Язык: Английский
Режиссеры: Alex Ollé (Алекс Олле), Carlus Padrissa (Карлуш Падрисса)
Дирижер: Pablo Heras-Casado (Пабло Эрас-Касадо)
Исполнители:
Jane Henschel (Джейн Хеншель) - Leocadia Begbick,
Donald Kaasch (Дональд Кааш) - Fatty the Bookkeeper,
Willard White (Уиллард Уайт) - Trinity Moses,
Measha Brueggergosman (Миша Брюггергосман) - Jenny Smith,
Michael König (Михаэль Кёниг) - Jim Maclntyre,
John Easterlin (Джон Истерлин) - Jack O’Brien / Toby Higgins,
Otto Katzameier (Отто Катзамайер) - Bank-Account Bill,
Steven Humes (Стивен Хьюмс) - Alaska-Wolf Joe
Описание: Новая постановка Teatro Real сатирической оперы Курта Вайля и Бертольда Брехта (написанной во время расцвета гитлеровского режима в Германии) - о социальном распаде, где любовь - товар в капиталистическом обществе, которым управляют преступники, и где самым большим преступлением, наказуемым смертью, является бедность.
Алекс Олле и Карлус Падрисса, театральные режиссеры-выдумщики, пересмотрели заново оперную постановку, ориентируясь на взгляды XXI столетия; и их давний сторонник, новый художественный руководитель Teatro Real Жерар Мортье, поддержал эту идею.
Добавьте к этому блестящее появление сопрано, канадской звезды Миши Брюггергосман и немецкого тенора Михаэла Кенига, - и можете быть уверены, что это зрелище вам надолго запомнится.

Оригинальное описание

Rise and Fall of the City of Mahagonny (German: Aufstieg und Fall der Stadt Mahagonny) is a political-satirical opera composed by Kurt Weill to a German libretto by Bertolt Brecht. It was first performed on 9 March 1930 at the Neues Theater in Leipzig. The libretto was mainly written in early 1927 and the music was finished in the spring of 1929, although both text and music were partly revised by the authors later. An early by-product, however, was the Mahagonny-Songspiel, sometimes known as Das kleine Mahagonny, a concert work for voices and small orchestra commissioned by the Deutsche Kammermusik Festival in Baden-Baden and premiered there on 18 July 1927. The ten numbers, which include the "Alabama Song" and "Benares Song", were duly incorporated into the full opera. The opera had its premiere in Leipzig in March 1930 and played in Berlin in December of the following year. The opera was banned by the Nazis in 1933 and did not have a significant production until the 1960s. Englisn adaptation made by Michael Feingold.
Weill's score uses a number of styles, including rag-time, jazz and formal counterpoint, notably in the "Alabama Song" (covered by multiple artists, notably Ute Lemper, The Doors and David Bowie). The lyrics for the "Alabama Song" and another song, the "Benares Song" are in English (albeit specifically idiosyncratic English) and are performed in that language even when the opera is performed in its original (German) language.
Production of Teatro Real recorded in High Definition format, September 2010.
Об опере
Рецензия
Качество видео: BDRip
Формат/Контейнер: MKV
Видео кодек: H.264
Аудио кодек: AC3
Видео поток: H.264, 1280x720, 6141 kbps, 29.970 fps
Аудио поток: AC3, 448 kbps, 48 kHz, 6 ch

MediaInfo

Общее
Уникальный идентификатор : 186328092236825916221394972249638164157 (0x8C2D7C382926B3B1B67712D3EAA5D6BD)
Полное имя : V:\Torrent_3\Курт Вайль - Возвышение и падение города Махагони (Teatro Real) (2011) (BDRip 720p, AVC, AC3 5.1).mkv
Формат : Matroska
Версия формата : Version 4 / Version 2
Размер файла : 6,47 Гбайт
Продолжительность : 2 ч. 17 м.
Режим общего битрейта : Переменный
Общий поток : 6723 Кбит/сек
Дата кодирования : UTC 2015-02-01 10:09:00
Программа кодирования : mkvmerge v7.3.0 ('Nouages') 64bit built on Oct 22 2014 18:53:34
Библиотека кодирования : libebml v1.3.0 + libmatroska v1.4.1
DURATION : 02:17:47.776000000
NUMBER_OF_FRAMES : 258368
NUMBER_OF_BYTES : 462995456
_STATISTICS_WRITING_APP : mkvmerge v7.3.0 ('Nouages') 64bit built on Oct 22 2014 18:53:34
_STATISTICS_WRITING_DATE_UTC : 2015-02-01 10:09:00
_STATISTICS_TAGS : BPS DURATION NUMBER_OF_FRAMES NUMBER_OF_BYTES
Видео
Идентификатор : 1
Формат : AVC
Формат/Информация : Advanced Video Codec
Профиль формата : Main@L4.1
Параметр CABAC формата : Да
Параметр ReFrames формата : 3 кадра
Идентификатор кодека : V_MPEG4/ISO/AVC
Продолжительность : 2 ч. 17 м.
Вид битрейта : Переменный
Битрейт : 6141 Кбит/сек
Максимальный битрейт : 8000 Кбит/сек
Ширина : 1280 пикселей
Высота : 720 пикселей
Соотношение сторон : 16:9
Режим частоты кадров : Постоянный
Частота кадров : 29,970 кадров/сек
Стандарт вещания : NTSC
Цветовое пространство : YUV
Субдискретизация насыщенности : 4:2:0
Битовая глубина : 8 бит
Тип развёртки : Прогрессивная
Бит/(Пиксели*Кадры) : 0.222
Размер потока : 5,91 Гбайт (91%)
Язык : English
Default : Да
Forced : Нет
colour_range : Limited
Аудио
Идентификатор : 2
Формат : AC-3
Формат/Информация : Audio Coding 3
Расширение режима : CM (complete main)
Параметр Endianness формата : Big
Идентификатор кодека : A_AC3
Продолжительность : 2 ч. 17 м.
Вид битрейта : Постоянный
Битрейт : 448 Кбит/сек
Каналы : 6 каналов
Расположение каналов : Front: L C R, Side: L R, LFE
Частота : 48,0 КГц
Битовая глубина : 16 бит
Метод сжатия : С потерями
Размер потока : 442 Мбайт (7%)
Default : Да
Forced : Нет

Скриншоты


Blu-ray



Показать сообщения:    

Текущее время: 03-Дек 14:39

Часовой пояс: UTC + 3


Вы не можете начинать темы
Вы не можете отвечать на сообщения
Вы не можете редактировать свои сообщения
Вы не можете удалять свои сообщения
Вы не можете голосовать в опросах
Вы не можете прикреплять файлы к сообщениям
Вы не можете скачивать файлы