(Opera / Oratorio) Стравинский - Эдип-царь / Stravinsky - Oedipus Rex (Gedda, Laszlo, Petri, Bertocci - RAI Symphony Orchestra & Chorus Rome, von Karajan) - 2001, APE (image+.cue) lossless


Статистика раздачи [Обновить пиров]
Размер:  177 MB   |    Зарегистрирован:  8 месяцев 16 дней   |    Скачан:  0 раз

Полного источника не было: Никогда

 
   
 
 
 

[Цитировать]

Igor Stravinsky - Oedipus Rex
Жанр: Opera / Oratorio
Страна-производитель диска: USA
Год издания диска: 2001
Издатель (лейбл): Opera D'oro
Номер по каталогу: OPD-1320
Дата записи: 1952
Аудиокодек: APE
Тип рипа: image+.cue
Битрейт аудио: lossless
Продолжительность: 51'17
Источник: собственный рип
Наличие сканов в содержимом раздачи: да
Треклист:
1. Act 1: Spettatori!
2. Act 1: Kaedit nos pestis
3. Act 1: Liberi, vos liberabo
4. Act 1: Ecco Creonte
5. Act 1: Respondit deus
6. Act 1: Non reperias
7. Act 1: Edipo interroga la fonte
8. Act 1: Delie, expectamus Minerva
9. Act 1: Dikere non possum
10. Act 1: Invidia fortunam odit
11. Act 1: Gloria! Gloria! Gloria!
12. Act 2: La disputa dei principi
13. Act 2: Non erubeskite, reges
14. Act 2: Pavesco subito, Jocasta
15. Act 2: Il testimone dell'assassinio
16. Act 2: Adest omniskius pastor
17. Act 2: Oportebat takere
18. Act 2: Nonne monstrum reskituri
19. Act 2: In monte reppertus est
20. Act 2: E ora sentiremo
21. Act 2: Divum Jocastae caput mortuum
22. Act 2: Ekke! Regem Oedipoda
Исполнители:
Igor Stravinsky - Oedipus Rex
opera-oratorio in 2 Acts
Nicolai Gedda (Edipo)
Magda Laszlo (Giocasta)
Mario Petri (Creonte)
Aldo Bertocci (Un pastore)
Nestore Catalani (Un corriere)
Arnoldo Foa' (narrator)
Orchestra e Coro di Roma della RAI
Herbert von Karajan

Лог создания рипа

Exact Audio Copy V1.0 beta 3 from 29. August 2011
EAC extraction logfile from 31. January 2015, 21:05
Stravinsky / Oedipus Rex, von Karajan
Used drive : TSSTcorpCDDVDW SE-208AB Adapter: 1 ID: 0
Read mode : Secure
Utilize accurate stream : Yes
Defeat audio cache : Yes
Make use of C2 pointers : No
Read offset correction : 6
Overread into Lead-In and Lead-Out : No
Fill up missing offset samples with silence : Yes
Delete leading and trailing silent blocks : No
Null samples used in CRC calculations : Yes
Used interface : Native Win32 interface for Win NT & 2000
Used output format : Monkey's Audio Lossless Encoder
Selected bitrate : High Lossless Compression
Quality : High
Add ID3 tag : Yes
Command line compressor : C:\Program Files (x86)\Exact Audio Copy\MAC\MAC.exe
TOC of the extracted CD
Track | Start | Length | Start sector | End sector
---------------------------------------------------------
1 | 0:00.00 | 0:58.49 | 0 | 4398
2 | 0:58.49 | 3:32.30 | 4399 | 20328
3 | 4:31.04 | 3:18.51 | 20329 | 35229
4 | 7:49.55 | 0:27.55 | 35230 | 37309
5 | 8:17.35 | 3:24.06 | 37310 | 52615
6 | 11:41.41 | 3:25.69 | 52616 | 68059
7 | 15:07.35 | 0:37.53 | 68060 | 70887
8 | 15:45.13 | 1:58.24 | 70888 | 79761
9 | 17:43.37 | 3:21.57 | 79762 | 94893
10 | 21:05.19 | 2:57.51 | 94894 | 108219
11 | 24:02.70 | 1:03.43 | 108220 | 112987
12 | 25:06.38 | 1:09.03 | 112988 | 118165
13 | 26:15.41 | 6:50.48 | 118166 | 148963
14 | 33:06.14 | 2:54.02 | 148964 | 162015
15 | 36:00.16 | 0:33.32 | 162016 | 164522
16 | 36:33.48 | 2:45.54 | 164523 | 176951
17 | 39:19.27 | 1:26.27 | 176952 | 183428
18 | 40:45.54 | 1:08.01 | 183429 | 188529
19 | 41:53.55 | 2:04.71 | 188530 | 197900
20 | 43:58.51 | 1:30.32 | 197901 | 204682
21 | 45:29.08 | 3:21.40 | 204683 | 219797
22 | 48:50.48 | 2:37.04 | 219798 | 231576
Range status and errors
Selected range
Filename D:\EAC\Stravinsky - Oedipus Rex, von Karajan.wav
Peak level 96.6 %
Extraction speed 4.3 X
Range quality 100.0 %
Test CRC A4B1A423
Copy CRC A4B1A423
Copy OK
No errors occurred
AccurateRip summary
Track 1 accurately ripped (confidence 2) [B345133E] (AR v1)
Track 2 accurately ripped (confidence 2) [804AF156] (AR v1)
Track 3 accurately ripped (confidence 2) [AD791A38] (AR v1)
Track 4 accurately ripped (confidence 2) [5168F9DE] (AR v1)
Track 5 accurately ripped (confidence 2) [F65452F9] (AR v1)
Track 6 accurately ripped (confidence 2) [CD1A78DB] (AR v1)
Track 7 accurately ripped (confidence 2) [F68E7050] (AR v1)
Track 8 accurately ripped (confidence 2) [50F25D44] (AR v1)
Track 9 accurately ripped (confidence 2) [A66C97CC] (AR v1)
Track 10 accurately ripped (confidence 2) [46843A81] (AR v1)
Track 11 accurately ripped (confidence 2) [3399915A] (AR v1)
Track 12 accurately ripped (confidence 2) [361022EF] (AR v1)
Track 13 accurately ripped (confidence 2) [2DE1ECA6] (AR v1)
Track 14 accurately ripped (confidence 2) [FDF6F1F9] (AR v1)
Track 15 accurately ripped (confidence 2) [CB124859] (AR v1)
Track 16 accurately ripped (confidence 2) [A4EA4212] (AR v1)
Track 17 accurately ripped (confidence 2) [B0874F27] (AR v1)
Track 18 accurately ripped (confidence 2) [B5E05AB4] (AR v1)
Track 19 accurately ripped (confidence 2) [4011866C] (AR v1)
Track 20 accurately ripped (confidence 2) [0D9DA655] (AR v1)
Track 21 accurately ripped (confidence 2) [4941D130] (AR v1)
Track 22 accurately ripped (confidence 2) [31026DA4] (AR v1)
All tracks accurately ripped
End of status report
---- CUETools DB Plugin V2.1.3
[CTDB TOCID: GOMuUphhSW7pJ0StNRTrkPCMlLY-] found, Submit result: GOMuUphhSW7pJ0StNRTrkPCMlLY- has been confirmed
[adeaedb2] (1/1) Accurately ripped
==== Log checksum 11979FAAB31FAEAEF5BAF114E422E1654F8042AB97B9C563C380BDA2B10EEE2C ====

Содержание индексной карты (.CUE)

REM GENRE Opera
REM DATE 1952
REM DISCID 3B0C0F16
REM COMMENT "ExactAudioCopy v1.0b3"
CATALOG 0723724190023
PERFORMER "Stravinsky"
TITLE "Oedipus Rex, von Karajan"
FILE "Stravinsky - Oedipus Rex, von Karajan.ape" WAVE
TRACK 01 AUDIO
TITLE "Spettatori"
PERFORMER "Stravinsky"
FLAGS DCP
INDEX 01 00:00:00
TRACK 02 AUDIO
TITLE "Kaedit nos pestis"
PERFORMER "Stravinsky"
FLAGS DCP
INDEX 01 00:58:49
TRACK 03 AUDIO
TITLE "Liberi, vos Liberabo"
PERFORMER "Stravinsky"
FLAGS DCP
INDEX 01 04:31:04
TRACK 04 AUDIO
TITLE "Ecco Creonte"
PERFORMER "Stravinsky"
FLAGS DCP
INDEX 01 07:49:55
TRACK 05 AUDIO
TITLE "Respondit deus"
PERFORMER "Stravinsky"
FLAGS DCP
INDEX 01 08:17:35
TRACK 06 AUDIO
TITLE "Non reperias"
PERFORMER "Stravinsky"
FLAGS DCP
INDEX 01 11:41:41
TRACK 07 AUDIO
TITLE "Edipo interroga la Fonte"
PERFORMER "Stravinsky"
FLAGS DCP
INDEX 01 15:07:35
TRACK 08 AUDIO
TITLE "Delie, expectamus Minerva"
PERFORMER "Stravinsky"
FLAGS DCP
INDEX 01 15:45:13
TRACK 09 AUDIO
TITLE "Dikere non possum"
PERFORMER "Stravinsky"
FLAGS DCP
INDEX 01 17:43:37
TRACK 10 AUDIO
TITLE "Invedia, fortunam odit"
PERFORMER "Stravinsky"
FLAGS DCP
INDEX 01 21:05:19
TRACK 11 AUDIO
TITLE "Gloria! Gloria! Gloria!"
PERFORMER "Stravinsky"
FLAGS DCP
INDEX 01 24:02:70
TRACK 12 AUDIO
TITLE "La disputa dei principe"
PERFORMER "Stravinsky"
FLAGS DCP
INDEX 01 25:06:38
TRACK 13 AUDIO
TITLE "Nom erubeskite, reges"
PERFORMER "Stravinsky"
FLAGS DCP
INDEX 01 26:15:41
TRACK 14 AUDIO
TITLE "Pavesco subito, Jocaste"
PERFORMER "Stravinsky"
FLAGS DCP
INDEX 01 33:06:14
TRACK 15 AUDIO
TITLE "I testimone dell'assassinio"
PERFORMER "Stravinsky"
FLAGS DCP
INDEX 01 36:00:16
TRACK 16 AUDIO
TITLE "Adest omniskius pastor"
PERFORMER "Stravinsky"
FLAGS DCP
INDEX 01 36:33:48
TRACK 17 AUDIO
TITLE "Oportebat takere"
PERFORMER "Stravinsky"
FLAGS DCP
INDEX 01 39:19:27
TRACK 18 AUDIO
TITLE "Nonne monstrum reskituri"
PERFORMER "Stravinsky"
FLAGS DCP
INDEX 01 40:45:54
TRACK 19 AUDIO
TITLE "In monte reppertus est"
PERFORMER "Stravinsky"
FLAGS DCP
INDEX 01 41:53:55
TRACK 20 AUDIO
TITLE "E ora sentiremo"
PERFORMER "Stravinsky"
FLAGS DCP
INDEX 01 43:58:51
TRACK 21 AUDIO
TITLE "Divum Jocastae caput mortuum"
PERFORMER "Stravinsky"
FLAGS DCP
INDEX 01 45:29:08
TRACK 22 AUDIO
TITLE "Ekke! Regem Oedipoda"
PERFORMER "Stravinsky"
FLAGS DCP
INDEX 01 48:50:48
Доп. информация:
Oedipus rex is an "Opera-oratorio after Sophocles" by Igor Stravinsky, scored for orchestra, speaker, soloists, and male chorus.
The libretto, based on Sophocles's tragedy, was written by Jean Cocteau in French and then translated by Abbé Jean Daniélou into Latin (the narration, however, is performed in the language of the audience).
Oedipus rex was written towards the beginning of Stravinsky's neoclassical period.
He had considered setting the work in Ancient Greek, but decided ultimately on Latin: in his words "a medium not dead but turned to stone."
In the same period his ballet Pulcinella ( https://78.24.219.58:1500/viewtopic.php?t=4924842 ) had the premiere by the Ballets Russes in Paris.Synopsis:
A speaker appears, to narrate each episode of the story before it happens.
He warns us we will watch Oedipus falling into a trap waiting for him since his birth.
The city of Thebes is afflicted by plague.
In despair, the inhabitants turn to their king, Oedipus, who promises help.
His ambitious brother-in-law, Creon, has learnt from the oracle that the plague has been sent because the murderer of the previous king, Laius, is still living in the city.
Oedipus vows to find this man.
He consults with the blind Tiresias who unwillingly tells him: "The murderer of the king is a king".
Jocasta, the widow of Laius and now the wife of Oedipus, tells her husband that Laius met his death twelve years before at a crossroads.
Oedipus realises he himself is the murderer.
News arrives of the death of Oedipus's supposed father, Polybus, and the king discovers that he was adopted after being found abandoned as a baby on Mount Cithaeron.
Hearing this, Jocasta realises that Oedipus, her husband and the murderer of her former husband, is their long-lost son.
Off-stage, Jocasta kills herself and Oedipus, taking her pin of gold, puts out his own eyes.
Blinded, he reappears once more in front of the citizens, before turning away and leaving Thebes forever.
[teatrix.ru].t20265.torrent 
Торрент: Зарегистрирован [ 2016-03-19 20:41 ] · F775DCE49BFA10A1AE4724F4B8810660207FEAAF

Скачать .torrent

Скачать

15 KB

Статус: проверено
Скачан: 0 раз
Размер: 177 MB
terms.php



Быстрый ответ

Имя:

      
Для отправки сообщений необходимо включить JavaScript
Показать сообщения:    

Текущее время: 05-Дек 17:27

Часовой пояс: UTC + 3


Вы можете начинать темы
Вы можете отвечать на сообщения
Вы не можете редактировать свои сообщения
Вы не можете удалять свои сообщения
Вы не можете голосовать в опросах
Вы не можете прикреплять файлы к сообщениям
Вы можете скачивать файлы