Последняя альтернатива (Владимир Латышев) [1978 г., фантастика, телеспектакль, экранизация, WEB-DLRip]


 

[Цитировать]

Последняя альтернатива (3 серии) Год выпуска: 1978.
Жанр: фантастика, телеспектакль, экранизация.
Продолжительность: 00:49:01 + 00:46:17 + 00:31:13 (02:06:31).
Режиссер-постановщик: Владимир Латышев.
Действующие лица и исполнители:
Эл Бейли - Игорь Комаров,
Дан - Г. Васильев,
Гладия - Светлана Крючкова,
Кларисса - заслуженная артистка РСФСР Людмила Крячун,
Груэр - заслуженный артист РСФСР Владимир Эренберг,
Алтбиш - Ростислав Катанский
Либиг - Алексей Цуканов
Квемот - Михаил Данилов
Миним - Давид Либуркин
Роботы – Юрий Герцман, Геннадий Елагин, Сергей Евгранов, В. Попов, Н. Панфиленок, А. Цуканов.
Описание:
Телеспектакль по мотивам романа Айзека Азимова "Обнаженное солнце".
Детектива Элайджа Бейли приглашают в один из внешних миров - Солярию, где произошло загадочное убийство. Солярия отличается изолированностью жителей друг от друга (даже муж с женой видятся по расписанию), что делает убийство невероятным. С детства люди растут в окружении роботов, взрослыми людьми личные контакты воспринимаются как нечто неприличное и являются весьма тяжёлым испытанием. Неподготовленность жителей к убийству вынуждает их согласиться с предложением пригласить землянина. Прибыв на планету, Элайдж Бейли встречает своего старого знакомого - робота Дэниэла Оливо, в паре с которым они приступают к расследованию.

Дополнительная информация:
Страна: СССР .
Выпущено: © Ленинградское телевидение.
Автор: Айзек Азимов.
Авторы сценария: Владислав Нечаев, Владимир Латышев.
Художник-постановщик: Татьяна Венецианова.
Художники по гриму: Н. Грибова, И. Алексеева.
Музыкальное оформление: Э. Дехтяр.
Оператор-постановщик: Борис Волох.
Релиз
Рип lesik689.

Качество: WEB-DLRip
Формат: AVI
Видео: 640x480 (1.33:1), 25 fps, XviD MPEG-4 ~1800 kbps avg, 0.23 bit/pixel
Аудио: 48 kHz, MPEG Layer 3, 2 ch, ~128.00 kbps avg

Отчет MI

1-я серия
Общее
Полное имя : Poslednyaya.alternativa.1978.XviD.WEBRip.fenixclub\Poslednyaya.alternativa.1978.XviD.WEBRip.fenixclub_1.avi
Формат : AVI
Формат/Информация : Audio Video Interleave
Размер файла : 680 Мбайт
Продолжительность : 49 м.
Общий поток : 1939 Кбит/сек
Программа кодирования : VirtualDubMod 1.5.10.2 (build 2542/release)
Библиотека кодирования : VirtualDubMod build 2542/release
Видео
Идентификатор : 0
Формат : MPEG-4 Visual
Профиль формата : Advanced Simple@L5
Параметр BVOP формата : 2
Параметр QPel формата : Нет
Параметр GMC формата : Без точки перехода
Параметр матрицы формата : Default (MPEG)
Режим смешивания : Сжатый битовый поток
Идентификатор кодека : XVID
Идентификатор кодека/Подсказка : XviD
Продолжительность : 49 м.
Битрейт : 1801 Кбит/сек
Ширина : 640 пикселей
Высота : 480 пикселей
Соотношение сторон : 5:4
Соотношение сторон в оригинале : 4:3
Частота кадров : 25,000 кадров/сек
Цветовое пространство : YUV
Субдискретизация насыщенности : 4:2:0
Битовая глубина : 8 бит
Тип развёртки : Прогрессивная
Метод сжатия : С потерями
Бит/(Пиксели*Кадры) : 0.235
Размер потока : 631 Мбайт (93%)
Библиотека кодирования : XviD 64
Аудио
Идентификатор : 1
Формат : MPEG Audio
Версия формата : Version 1
Профиль формата : Layer 3
Режим : Joint stereo
Расширение режима : MS Stereo
Идентификатор кодека : 55
Идентификатор кодека/Подсказка : MP3
Продолжительность : 49 м.
Вид битрейта : Постоянный
Битрейт : 128 Кбит/сек
Каналы : 2 канала
Частота : 48,0 КГц
Метод сжатия : С потерями
Размер потока : 44,9 Мбайт (7%)
Выравнивание : Разделение по промежуткам
Продолжительность промежутка : 40 мс. (1,00 видеокадр)
Время предзагрузки промежутка : 500 мс.
2-я серия
Общее
Полное имя : Poslednyaya.alternativa.1978.XviD.WEBRip.fenixclub\Poslednyaya.alternativa.1978.XviD.WEBRip.fenixclub_2.avi
Формат : AVI
Формат/Информация : Audio Video Interleave
Размер файла : 641 Мбайт
Продолжительность : 46 м.
Общий поток : 1937 Кбит/сек
Программа кодирования : VirtualDubMod 1.5.10.2 (build 2542/release)
Библиотека кодирования : VirtualDubMod build 2542/release
Видео
Идентификатор : 0
Формат : MPEG-4 Visual
Профиль формата : Advanced Simple@L5
Параметр BVOP формата : 2
Параметр QPel формата : Нет
Параметр GMC формата : Без точки перехода
Параметр матрицы формата : Default (MPEG)
Режим смешивания : Сжатый битовый поток
Идентификатор кодека : XVID
Идентификатор кодека/Подсказка : XviD
Продолжительность : 46 м.
Битрейт : 1799 Кбит/сек
Ширина : 640 пикселей
Высота : 480 пикселей
Соотношение сторон : 5:4
Соотношение сторон в оригинале : 4:3
Частота кадров : 25,000 кадров/сек
Цветовое пространство : YUV
Субдискретизация насыщенности : 4:2:0
Битовая глубина : 8 бит
Тип развёртки : Прогрессивная
Метод сжатия : С потерями
Бит/(Пиксели*Кадры) : 0.234
Размер потока : 596 Мбайт (93%)
Библиотека кодирования : XviD 64
Аудио
Идентификатор : 1
Формат : MPEG Audio
Версия формата : Version 1
Профиль формата : Layer 3
Режим : Joint stereo
Расширение режима : MS Stereo
Идентификатор кодека : 55
Идентификатор кодека/Подсказка : MP3
Продолжительность : 46 м.
Вид битрейта : Постоянный
Битрейт : 128 Кбит/сек
Каналы : 2 канала
Частота : 48,0 КГц
Метод сжатия : С потерями
Размер потока : 42,4 Мбайт (7%)
Выравнивание : Разделение по промежуткам
Продолжительность промежутка : 40 мс. (1,00 видеокадр)
Время предзагрузки промежутка : 500 мс.
3-я серия
Общее
Полное имя : Poslednyaya.alternativa.1978.XviD.WEBRip.fenixclub\Poslednyaya.alternativa.1978.XviD.WEBRip.fenixclub_3.avi
Формат : AVI
Формат/Информация : Audio Video Interleave
Размер файла : 432 Мбайт
Продолжительность : 31 м.
Общий поток : 1937 Кбит/сек
Программа кодирования : VirtualDubMod 1.5.10.2 (build 2542/release)
Библиотека кодирования : VirtualDubMod build 2542/release
Видео
Идентификатор : 0
Формат : MPEG-4 Visual
Профиль формата : Advanced Simple@L5
Параметр BVOP формата : 2
Параметр QPel формата : Нет
Параметр GMC формата : Без точки перехода
Параметр матрицы формата : Default (MPEG)
Режим смешивания : Сжатый битовый поток
Идентификатор кодека : XVID
Идентификатор кодека/Подсказка : XviD
Продолжительность : 31 м.
Битрейт : 1799 Кбит/сек
Ширина : 640 пикселей
Высота : 480 пикселей
Соотношение сторон : 5:4
Соотношение сторон в оригинале : 4:3
Частота кадров : 25,000 кадров/сек
Цветовое пространство : YUV
Субдискретизация насыщенности : 4:2:0
Битовая глубина : 8 бит
Тип развёртки : Прогрессивная
Метод сжатия : С потерями
Бит/(Пиксели*Кадры) : 0.234
Размер потока : 402 Мбайт (93%)
Библиотека кодирования : XviD 64
Аудио
Идентификатор : 1
Формат : MPEG Audio
Версия формата : Version 1
Профиль формата : Layer 3
Режим : Joint stereo
Расширение режима : MS Stereo
Идентификатор кодека : 55
Идентификатор кодека/Подсказка : MP3
Продолжительность : 31 м.
Вид битрейта : Постоянный
Битрейт : 128 Кбит/сек
Каналы : 2 канала
Частота : 48,0 КГц
Метод сжатия : С потерями
Размер потока : 28,6 Мбайт (7%)
Выравнивание : Разделение по промежуткам
Продолжительность промежутка : 40 мс. (1,00 видеокадр)
Время предзагрузки промежутка : 500 мс.

Скриншоты


Альтернативный хост





Показать сообщения:    

Текущее время: 04-Дек 21:16

Часовой пояс: UTC + 3


Вы не можете начинать темы
Вы не можете отвечать на сообщения
Вы не можете редактировать свои сообщения
Вы не можете удалять свои сообщения
Вы не можете голосовать в опросах
Вы не можете прикреплять файлы к сообщениям
Вы не можете скачивать файлы