Встречи с любимыми актерами. Сергей Газаров [2012 г., Приложение к телеигре, TVRip]


Статистика раздачи [Обновить пиров]
Размер:  750 MB   |    Зарегистрирован:  8 месяцев 22 дня   |    Скачан:  0 раз

Полного источника не было: Никогда

 
   
 
 
 

[Цитировать]

Встречи с любимыми актерами. Сергей Газаров Жанр: Приложение к телеигре.
Год выпуска: 2012.
Продолжительность: 01:27:12.
Автор и ведущий: Александр Динес.
Гость этой программы: актер и режиссер Сергей Газаров.
Описание:
"Маркиза" - это разлекательно-познавательная телеигра, выходящая на Саратовском телевидении с 1993 года. Она состоит из двух частей. В первой части зрители в студии угадывают авторов литературных произведений, сами произведения или их персонажей. Во второй части аудитории требуется определить личность гостя, приглашенного в студию. Как правило, в роли гостя выступает кто-либо из известных актеров, который специально приезжает в Саратов.
В данной раздаче представлено приложение к телеигре - встреча с любимыми актерами. Гость программы - актер и режиссер Сергей Газаров.
Сергей Газаров отвечает на вопросы зрителей и ведущего.
Он рассказывает о своем пути в актерскую профессию, о поступлении на курс Олега Табакова, о своей первой роли в фильме "Выигрыш одинокого коммерсанта", о съемках в Чили и любви чилийцев к сериалам. Делится своими впечатлениями о работе с Никитой Михалковым в фильмах "Родня" и "12".

Дополнительная информация:
Страна: Россия .
Выпущено: Саратовское телевидение, © СМИ «Телеигра «Маркиза».
Съемка 2011 года.
Релиз
Качество видео:...TVRip
Формат:.................AVI
Видео:..688x528 (1.30:1), 25 fps, XviD MPEG-4 ~1065 kbps avg, 0.12 bit/pixel
Аудио:..48 kHz, MPEG Layer 3, 2 ch, ~128.00 kbps avg

Отчет MediaInfo

Общее
Полное имя : Vstrechi.s.ljubimymi.aktjorami.Sergej.Gazarov.2011.XviD.TVRip.fenixclub.avi
Формат : AVI
Формат/Информация : Audio Video Interleave
Размер файла : 750 Мбайт
Продолжительность : 1 ч. 27 м.
Общий поток : 1203 Кбит/сек
Программа кодирования : VirtualDubModRus 1.5.10.2 (build 2542/release)
Библиотека кодирования : VirtualDub build 32842/release
Видео
Идентификатор : 0
Формат : MPEG-4 Visual
Профиль формата : Advanced Simple@L5
Параметр BVOP формата : 2
Параметр QPel формата : Нет
Параметр GMC формата : Без точки перехода
Параметр матрицы формата : Default (H.263)
Режим смешивания : Сжатый битовый поток
Идентификатор кодека : XVID
Идентификатор кодека/Подсказка : XviD
Продолжительность : 1 ч. 27 м.
Битрейт : 1065 Кбит/сек
Ширина : 688 пикселей
Высота : 528 пикселей
Соотношение сторон : 4:3
Частота кадров : 25,000 кадров/сек
Цветовое пространство : YUV
Субдискретизация насыщенности : 4:2:0
Битовая глубина : 8 бит
Тип развёртки : Прогрессивная
Метод сжатия : С потерями
Бит/(Пиксели*Кадры) : 0.117
Размер потока : 664 Мбайт (89%)
Библиотека кодирования : XviD 73
Аудио
Идентификатор : 1
Формат : MPEG Audio
Версия формата : Version 1
Профиль формата : Layer 3
Режим : Joint stereo
Расширение режима : MS Stereo
Идентификатор кодека : 55
Идентификатор кодека/Подсказка : MP3
Продолжительность : 1 ч. 27 м.
Вид битрейта : Постоянный
Битрейт : 128 Кбит/сек
Каналы : 2 канала
Частота : 48,0 КГц
Метод сжатия : С потерями
Задержка видео : 20 мс.
Размер потока : 79,8 Мбайт (11%)
Выравнивание : Разделение по промежуткам
Продолжительность промежутка : 40 мс. (1,00 видеокадр)
Время предзагрузки промежутка : 500 мс.
Библиотека кодирования : LAME3.98.2ЄЄЄЄЄЄЄЄ4

Скриншоты

Альтернативный хост

[teatrix.ru].t20268.torrent 
Торрент: Зарегистрирован [ 2016-03-19 20:41 ] · 3E878EFB1519211D2ABCCCEC449EDED5616B370A

Скачать .torrent

Скачать

15 KB

Статус: проверено
Скачан: 0 раз
Размер: 750 MB
terms.php



Быстрый ответ

Имя:

      
Для отправки сообщений необходимо включить JavaScript
Показать сообщения:    

Текущее время: 11-Дек 11:00

Часовой пояс: UTC + 3


Вы можете начинать темы
Вы можете отвечать на сообщения
Вы не можете редактировать свои сообщения
Вы не можете удалять свои сообщения
Вы не можете голосовать в опросах
Вы не можете прикреплять файлы к сообщениям
Вы можете скачивать файлы