(Orchestral, Contemporary Classical) Olivier Messiaen - Eclairs sur l'au-dela... (Berlin Philharmonic Orchestra, Simon Rattle) - 2004, FLAC (image+.cue) lossless


 

[Цитировать]

Olivier Messiaen - Éclairs sur l'au-delà... /Eclairs sur l'Au-Dela...
Жанр: Orchestral, Contemporary Classical
Страна-производитель диска: UK
Год издания диска: 2004
Издатель (лейбл): EMI Classics
Номер по каталогу: 7243 5 57788 2 6
Дата записи: 2004
Аудиокодек: FLAC
Тип рипа: image+.cue
Битрейт аудио: lossless
Продолжительность: 01:00:22
Источник: пиратская бухта или около того
Наличие сканов в содержимом раздачи: буклет
Olivier Messiaen (1908-1992)
Треклист:
01. Apparition du Christ glorieux 5:45
02. La Constellation du Sagittaire 5:53
03. L'Oiseau-lyre et la ville-fiancée 4:03
04. Les Elus marques du sceau 1:52
05. Demeurer dans l'Amour... 10:11
06. Les Sept Anges aux sept trompettes 4:03
07. Et Dieu essuiera tout larme de leurs yeux... 3:32
08. Les Etoiles et la Gloire 11:14
09. Plusieurs Oiseaux des arbres de Vie 2:28
10. Le Chemin de I'Invisible 3:43
11. Le Christ, lumiere du Paradis 7:40
Исполнители:
Berliner Philharmoniker
Sir Simon Rattle

Лог создания рипа

Exact Audio Copy V0.99 prebeta 4 from 23. January 2008
EAC extraction logfile from 6. April 2008, 12:54
Simon Rattle, BPO / Messiaen - Йclairs sur L'au Delа
Used drive : PHILIPS SPD3100L Adapter: 3 ID: 0
Read mode : Burst
Read offset correction : 6
Overread into Lead-In and Lead-Out : No
Fill up missing offset samples with silence : Yes
Delete leading and trailing silent blocks : No
Null samples used in CRC calculations : Yes
Used interface : Native Win32 interface for Win NT & 2000
Used output format : User Defined Encoder
Selected bitrate : 128 kBit/s
Quality : High
Add ID3 tag : No
Command line compressor : C:\Program Files\Exact Audio Copy\Flac\flac.exe
Additional command line options : -6 -V -T "artist=%a" -T "title=%t" -T "album=%g" -T "date=%y" -T "tracknumber=%n" -T "genre=%m" -T comment="%e" -T "comment=EAC (Secure Mode)" %s
TOC of the extracted CD
Track | Start | Length | Start sector | End sector
---------------------------------------------------------
1 | 0:00.00 | 5:44.63 | 0 | 25862
2 | 5:44.63 | 5:52.63 | 25863 | 52325
3 | 11:37.51 | 4:02.69 | 52326 | 70544
4 | 15:40.45 | 1:52.26 | 70545 | 78970
5 | 17:32.71 | 10:10.70 | 78971 | 124790
6 | 27:43.66 | 4:02.57 | 124791 | 142997
7 | 31:46.48 | 3:31.38 | 142998 | 158860
8 | 35:18.11 | 11:13.49 | 158861 | 209384
9 | 46:31.60 | 2:27.38 | 209385 | 220447
10 | 48:59.23 | 3:42.72 | 220448 | 237169
11 | 52:42.20 | 7:39.73 | 237170 | 271667
Range status and errors
Selected range
Filename C:\Users\Benjamin\Desktop\EAC Music\[Simon Rattle, BPO] - Messiaen - Йclairs sur L'au Delа.wav
Timing problem 0:00:17
Peak level 95.9 %
Copy CRC 61FB4D90
Copy finished
No errors occurred
AccurateRip summary
Track 1 not present in database
Track 2 not present in database
Track 3 not present in database
Track 4 not present in database
Track 5 not present in database
Track 6 not present in database
Track 7 not present in database
Track 8 not present in database
Track 9 not present in database
Track 10 not present in database
Track 11 not present in database
None of the tracks are present in the AccurateRip database
End of status report

Лог проверки качества

Started at: ïîíåäåëüíèê, 02. 02. 2015. - 1:33.15
1 file found
1 -===- H:\Music\Classical, Contemporary\Olivier Messiaen\Olivier Messiaen - Éclairs sur L'au Delà [Rattle, BPO] [FLAC]\[Simon Rattle, BPO] - Messiaen - Éclairs sur L'au Delà.flac
Extracted successfully
Conclusion: this track is CDDA with probability 100%
Tempfile successfully deleted.
Finished at: ïîíåäåëüíèê, 02. 02. 2015. - 1:38.04 (operation time: 0:04.49)



Показать сообщения:    

Текущее время: 08-Дек 12:55

Часовой пояс: UTC + 3


Вы не можете начинать темы
Вы не можете отвечать на сообщения
Вы не можете редактировать свои сообщения
Вы не можете удалять свои сообщения
Вы не можете голосовать в опросах
Вы не можете прикреплять файлы к сообщениям
Вы не можете скачивать файлы