(Classical) [WEB] Ludwig van Beethoven - Klavierkonzerte Nr. 1-5 (Эмиль Гилельс; Оркестр Ленинградской филармонии, Kurt Sanderling / Курт Зандерлинг; Большой симфонический оркестр, Кирилл Кондрашин) - 2014, FLAC (tracks), lossless


Статистика раздачи [Обновить пиров]
Размер:  698 MB   |    Зарегистрирован:  8 месяцев 19 дней   |    Скачан:  0 раз

Полного источника не было: Никогда

 
   
 
 
 

[Цитировать]

Ludwig van Beethoven
The Complete Piano Concertos
Emil Gilels
Leningrad State Philharmonic Symphony Orchestra • Kurt Sanderling
Grand Symphony Orchestra • Kirill Kondrashin
- Жанр: Classical
Год издания диска: 2014
Издатель (лейбл): Мелодия
Дата записи: 1947
Аудиокодек: FLAC
Тип рипа: tracks
Битрейт аудио: lossless
Продолжительность: 02:46:59
Наличие сканов: Sleeve
-Интернет-магазин: Qobuz-
Ludwig van Beethoven (1770-1827)
Concerto No. 1 in C Major for Piano and Orchestra, Op. 15
01. I. Allegro con brio (13:48)
02. II. Largo (12:12)
03. III. Rondo - Allegro scerzando (8:18)
Concerto No. 2 in B-Flat Major for Piano and Orchestra, Op. 19
04. I. Allegro con brio (13:42)
05. II. Adagio (8:48)
06. III. Rondo - Molto allegro (6:03)
Concerto No. 3 in C Minor for Piano and Orchestra, Op. 37
07. I. Allegro con brio (16:09)
08. II. Largo (10:36)
09. III. Rondo (8:39)
Concerto No. 4 in G Major for Piano and Orchestra, Op. 58
10. I. Allegro moderato (17:27)
11. II. Andante con moto (5:04)
12. III. Rondo - Vivace (9:32)
Concerto No. 5 in E-Flat Major for Piano and Orchestra, Op. 73 'Emperor'
13. I. Allegro (18:43)
14. II. Adagio un poco mosso (8:11)
15. III. Rondo - Allegro (9:48)
-Исполнители:
Эмиль Гилельс, фортепиано
Оркестр Ленинградской филармонии (Концерты №№ 1, 2, 4, 5)
Курт Зандерлинг, дирижёр
Большой симфонический оркестр Всесоюзного радио и Центрального телевидения (Концерт №3)
Кирилл Кондрашин, дирижёр

ОтчётыДинамический диапазон

foobar2000 1.2.2 / Dynamic Range Meter 1.1.1
log date: 2015-02-02 12:04:57
--------------------------------------------------------------------------------
Analyzed: Emil Gilels, Grand Symphony Orchestra, Kirill Kondrashin / Beethoven: The Complete Piano Concertos (1-3)
Emil Gilels, Leningrad State Philharmonic Symphony Orchestra, Kurt Sanderling / Beethoven: The Complete Piano Concertos (4-15)
--------------------------------------------------------------------------------
DR Peak RMS Duration Track
--------------------------------------------------------------------------------
DR14 -2.00 dB -21.81 dB 16:09 ?-Concerto No. 3 in C Minor for Piano and Orchestra, Op. 37: I. Allegro con brio
DR15 -2.00 dB -22.76 dB 10:36 ?-Concerto No. 3 in C Minor for Piano and Orchestra, Op. 37: II. Largo
DR14 -2.05 dB -21.84 dB 8:39 ?-Concerto No. 3 in C Minor for Piano and Orchestra, Op. 37: III. Rondo
DR13 -2.00 dB -19.41 dB 13:48 ?-Concerto No. 1 in C Major for Piano and Orchestra, Op. 15: I. Allegro con brio
DR14 -2.00 dB -21.02 dB 12:12 ?-Concerto No. 1 in C Major for Piano and Orchestra, Op. 15: II. Largo
DR13 -2.00 dB -19.49 dB 8:18 ?-Concerto No. 1 in C Major for Piano and Orchestra, Op. 15: III. Rondo - Allegro scerzando
DR14 -2.00 dB -20.32 dB 13:42 ?-Concerto No. 2 in B-Flat Major for Piano and Orchestra, Op. 19: I. Allegro con brio
DR13 -2.00 dB -21.69 dB 8:48 ?-Concerto No. 2 in B-Flat Major for Piano and Orchestra, Op. 19: II. Adagio
DR12 -2.00 dB -18.18 dB 6:03 ?-Concerto No. 2 in B-Flat Major for Piano and Orchestra, Op. 19: III. Rondo - Molto allegro
DR13 -2.00 dB -21.04 dB 17:27 ?-Concerto No. 4 in G Major for Piano and Orchestra, Op. 58: I. Allegro moderato
DR14 -7.05 dB -27.82 dB 5:04 ?-Concerto No. 4 in G Major for Piano and Orchestra, Op. 58: II. Andante con moto
DR14 -2.00 dB -21.48 dB 9:32 ?-Concerto No. 4 in G Major for Piano and Orchestra, Op. 58: III. Rondo - Vivace
DR14 -2.00 dB -20.99 dB 18:43 ?-Concerto No. 5 in E-Flat Major for Piano and Orchestra, Op. 73: I. Allegro
DR17 -6.93 dB -29.15 dB 8:11 ?-Concerto No. 5 in E-Flat Major for Piano and Orchestra, Op. 73: II. Adagio un poco mosso
DR13 -2.00 dB -19.42 dB 9:48 ?-Concerto No. 5 in E-Flat Major for Piano and Orchestra, Op. 73: III. Rondo - Allegro
--------------------------------------------------------------------------------
Number of tracks: 15
Official DR value: DR14
Samplerate: 44100 Hz
Channels: 2
Bits per sample: 16
Bitrate: 589 kbps
Codec: FLAC
================================================================================

Лог проверки качества

-----------------------
DON'T MODIFY THIS FILE
-----------------------
PERFORMER: auCDtect Task Manager, ver. 1.6.0 RC1 build 1.6.0.1
Copyright (c) 2008-2010 y-soft. All rights reserved
http://y-soft.org
ANALYZER: auCDtect: CD records authenticity detector, version 0.8.2
Copyright (c) 2004 Oleg Berngardt. All rights reserved.
Copyright (c) 2004 Alexander Djourik. All rights reserved.
FILE: 15-Concerto_No_5_III_Rondo-Allegro.flac
Size: 43568447 Hash: 4D95BF22D641EF56A058FA56970DEBBF Accuracy: -m0
Conclusion: CDDA 100%
Signature: BDA499DF0D5A5AE02B51F83EB422D0CCED7C9FE4
FILE: 14-Concerto_No_5_II_Adagio_un_poco_mosso.flac
Size: 31051942 Hash: 1F8592192B074CB6A422B0F6813A2D91 Accuracy: -m0
Conclusion: CDDA 99%
Signature: 4C62F7BF15E895D594CA9AF349021C8428BDC30B
FILE: 13-Concerto_No_5_I_Allegro.flac
Size: 79793638 Hash: DD6CE95194910BD218A14605B43B2AD9 Accuracy: -m0
Conclusion: CDDA 100%
Signature: DD538A74BEE7656F7A0A75AB9E4F9C1D213DFD05
FILE: 12-Concerto_No_4_III_Rondo-Vivace.flac
Size: 40812487 Hash: 3B775F5E90D97FD7763B79317F4E47D8 Accuracy: -m0
Conclusion: CDDA 100%
Signature: 6F9603264F34E040DB020A96F47CE52FBE0358A7
FILE: 11-Concerto_No_4_II_Andante_con_moto.flac
Size: 19408756 Hash: BC40CD598BF95145F6B2D52F7FB2171E Accuracy: -m0
Conclusion: CDDA 100%
Signature: A751CE5279E1136AFBFC48E63B8AC9A0C0396EA8
FILE: 10-Concerto_No_4_I_Allegro_moderato.flac
Size: 75141742 Hash: 18C97DE167AF3860E3914B85F840605D Accuracy: -m0
Conclusion: CDDA 100%
Signature: DB0B85D7E41DBC0B2A54BB693742539C789591B4
FILE: 09-Concerto_No_3_III_Rondo.flac
Size: 40224771 Hash: 12104A84342E45AD8494775BF2371CB6 Accuracy: -m0
Conclusion: CDDA 100%
Signature: F60AB61D3EFAFE0E13E90272F4A78CC3DA57EB1E
FILE: 08-Concerto_No_3_II_Largo.flac
Size: 48350846 Hash: EAAB733CA8D3AA7C5E40174A1ACC1587 Accuracy: -m0
Conclusion: CDDA 100%
Signature: 52574E09BBCCBD787640F7298B480DBB59F8AE80
FILE: 07-Concerto_No_3_I_Allegro_con_brio.flac
Size: 74958467 Hash: 1B7DA044679AA4F6C9ABED65D670E01C Accuracy: -m0
Conclusion: CDDA 100%
Signature: A9E21BF60C967911F855F1D7D74CEFF29532E8B8
FILE: 06-Concerto_No_2_III_Rondo-Molto_allegro.flac
Size: 27698469 Hash: 89B4E727D759F3A9BCE73BF396543C6C Accuracy: -m0
Conclusion: CDDA 100%
Signature: 7341939FC1A37362B13A48271A02ADAA56E676FF
FILE: 05-Concerto_No_2_II_Adagio.flac
Size: 36908340 Hash: EFC71DB56766C612DF8D8380622017EF Accuracy: -m0
Conclusion: CDDA 100%
Signature: 8802CD8C58BF109858F360E797C4CDAA327CB921
FILE: 04-Concerto_No_2_I_Allegro_con_brio.flac
Size: 60448531 Hash: 22271B8975D13D00AA48677B996B10F8 Accuracy: -m0
Conclusion: CDDA 100%
Signature: D1A025D29226497407EFB4ECE9F12212648B94DB
FILE: 03-Concerto_No_1_III_Rondo-Allegro_scerzando.flac
Size: 37042306 Hash: 7AD8631DDC569E4FA070CAE1D657680B Accuracy: -m0
Conclusion: CDDA 100%
Signature: 2E496902E6A2F5260C10CA05E510BC9668D9A732
FILE: 02-Concerto_No_1_II_Largo.flac
Size: 53015147 Hash: D5E46DD29BCC1A03F4AEF2313ED6691E Accuracy: -m0
Conclusion: CDDA 100%
Signature: 630E04F48AA4A967B766498C39330E05D01784BE
FILE: 01-Concerto_No_1_I_Allegro_con_brio.flac
Size: 62438672 Hash: 1A82804F42D245B1A9F49D2054607BC9 Accuracy: -m0
Conclusion: CDDA 100%
Signature: 35556286A381E130B3925F9F0E81F6C9A50EA7FF

Скриншот спектра частот

Доп. информация

Релиз полностью готов к воспроизведению в аудиоплеере (я ориентировался на foobar2000)При скачивании, если необходимо, переименуйте папку, в которой будет находиться альбомБольшая просьба к скачавшим поддерживать раздачу! Помогайте другим, ведь вам тоже может понадобиться помощь!Не забываем говорить "Спасибо"!Комментарии приветствуются!
[teatrix.ru].t20272.torrent 
Торрент: Зарегистрирован [ 2016-03-19 20:41 ] · FBB161BBD79ACA3CAFE46E10A3B865891AAD5E4E

Скачать .torrent

Скачать

15 KB

Статус: проверено
Скачан: 0 раз
Размер: 698 MB
terms.php



Быстрый ответ

Имя:

      
Для отправки сообщений необходимо включить JavaScript
Показать сообщения:    

Текущее время: 07-Дек 23:13

Часовой пояс: UTC + 3


Вы можете начинать темы
Вы можете отвечать на сообщения
Вы не можете редактировать свои сообщения
Вы не можете удалять свои сообщения
Вы не можете голосовать в опросах
Вы не можете прикреплять файлы к сообщениям
Вы можете скачивать файлы