Этот пылкий влюбленный. Владислав Стржельчик (Ольга Дроздова) [2007, биография, IPTVRip]


Статистика раздачи [Обновить пиров]
Размер:  546 MB   |    Зарегистрирован:  8 месяцев 18 дней   |    Скачан:  0 раз

Полного источника не было: Никогда

 
   
 
 
 

[Цитировать]

Этот пылкий влюбленный. Владислав Стржельчик
Дата/Год выпуска: 2007
Страна: Россия
Жанр: биография
Продолжительность: 00:43:59
Перевод: Не требуется
Русские субтитры: нет
Оригинальная аудиодорожка: русский
Режиссер: Ольга Дроздова
Телеканал: ДовериеОписание: Зрители и коллеги обожали Владислава Стржельчика. Михаил Боярский позволял себе вставать перед ним на колени и говорить: "Здравствуйте, гений!" Юрий Стоянов в передаче "Городок" часто использовал интонации, движения, "словечки" Владислава Игнатьевича, выражая тем самым уважение к его уникальному таланту. Он был солнечным, светлым человеком, безумно любил театр и жизнь. Неожиданная страшная болезнь Стржельчика и его мучительный уход потрясли всех. В театре коллеги в один голос говорили: "Кто угодно, только не Стриж! Смерть и он абсолютно не вязались друг с другом"...Сэмпл: https://www.sendspace.com/file/ztzfzj
качество: IPTVRip (исходник в формате MPEG-2)
формат: AVI
Видео: Xvid 704x528 (4:3) 25fps ~1536kbps
Аудио: MP3 48000Hz stereo (2ch) 192kbps

MediaInfo

General
Complete name : I:\Мои раздачи\Этот пылкий влюбленный. Владислав Стржельчик.avi
Format : AVI
Format/Info : Audio Video Interleave
File size : 546 MiB
Duration : 43mn 59s
Overall bit rate : 1 735 Kbps
Video
ID : 0
Format : MPEG-4 Visual
Format profile : Advanced Simple@L5
Format settings, BVOP : Yes
Format settings, QPel : No
Format settings, GMC : No warppoints
Format settings, Matrix : Default (H.263)
Codec ID : XVID
Codec ID/Hint : XviD
Duration : 43mn 59s
Bit rate : 1 533 Kbps
Width : 704 pixels
Height : 528 pixels
Display aspect ratio : 4:3
Frame rate : 25.000 fps
Color space : YUV
Chroma subsampling : 4:2:0
Bit depth : 8 bits
Scan type : Progressive
Compression mode : Lossy
Bits/(Pixel*Frame) : 0.165
Stream size : 482 MiB (88%)
Writing library : XviD 64
Audio
ID : 1
Format : MPEG Audio
Format version : Version 1
Format profile : Layer 3
Mode : Joint stereo
Mode extension : MS Stereo
Codec ID : 55
Codec ID/Hint : MP3
Duration : 43mn 59s
Bit rate mode : Constant
Bit rate : 192 Kbps
Channel(s) : 2 channels
Sampling rate : 48.0 KHz
Compression mode : Lossy
Stream size : 60.4 MiB (11%)
Alignment : Split accross interleaves
Interleave, duration : 40 ms (1.00 video frame)
Interleave, preload duration : 500 ms

Скриншоты

[teatrix.ru].t20276.torrent 
Торрент: Зарегистрирован [ 2016-03-19 20:41 ] · 041AEC0EEBED3FDCB7556300FD72D03EFFF31BFC

Скачать .torrent

Скачать

11 KB

Статус: проверено
Скачан: 0 раз
Размер: 546 MB
terms.php



Быстрый ответ

Имя:

      
Для отправки сообщений необходимо включить JavaScript
Показать сообщения:    

Текущее время: 07-Дек 13:40

Часовой пояс: UTC + 3


Вы можете начинать темы
Вы можете отвечать на сообщения
Вы не можете редактировать свои сообщения
Вы не можете удалять свои сообщения
Вы не можете голосовать в опросах
Вы не можете прикреплять файлы к сообщениям
Вы можете скачивать файлы