Остров сокровищ (Евгений Писарев, Денис Филимонов) [2013 г., приключения, SATRip] Московский драматический театр им. А.С.Пушкина


 

[Цитировать]

Остров сокровищ Название театра: Московский драматический театр им. А.С.Пушкина.
Жанр: приключения.
Год выпуска: 2013.
Продолжительность: 01:30:22.
Режиссер: заслуженный артист России Евгений Писарев, Денис Филимонов.
Действующие лица и исполнители:
Джим Хокинс - Прохор Тесленко,
Доктор Ливси - Игорь Теплов,
Сквайр Трелони - Александр Анисимов,
Капитан Смоллет - Андрей Сухов,
Джон Сильвер - Сергей Ланбамин,
Билли Бонс - Александр Матросов,
Слепой Пью - Константин Похмелов,
Попугай - Владимир Григорьев,
Черный Пес - Владимир Моташнев,
Веселый Гомес - Евгений Плиткин,
Кровавая Мэри - Наталья Корогодова,
Кривой Морган - Александр Матросов,
Бен Ган - Константин Похмелов.
Описание:
Кто же не мечтает оказаться владельцем таинственной карты острова сокровищ, увидеть, наконец, на потертом пергаменте жирный крест с надписью: "копать здесь"? Джиму Хокинсу повезло, карта у него в руках, но против него хитроумный пират Джон Сильвер со своей бандой головорезов! Ему тоже не терпится заполучить клад. Зато вместе с Джимом его друзья: смелый капитан Смоллет и другие персонажи "Острова сокровищ".
Спектакль о ветре приключений, уносящем к далеким океанским островам, верной дружбе, храбрости, и, конечно, о любви.

Дополнительная информация:
Страна: Россия .
Выпущено: Московский драматический театр им. А.С.Пушкина, © Кинокомпания "Дебют" по заказу Правительства Москвы.
Автор: Роберт Льюис Стивенсон.
Авторы пьесы: заслуженный артист России Евгений Писарев, Денис Филимонов.
Сценография: Анастасия Александрова.
Композитор: Сергей Чекрыжов.
Хореография: Ирина Кашуба.
Постановка боев: Вячеслав Рыбаков.
Режиссер видеоверсии: Сергей Сидоренко.
Оператор-постановщик: Владимир Кузаков.

О спектакле.
Релиз

Качество: SATRip
Формат: AVI
Видео:..720x400 (1.80:1), 25 fps, XviD MPEG-4 ~2168 kbps avg, 0.30 bit/pixel
Аудио:..44.100 kHz, MPEG Layer 3, 2 ch, ~128.00 kbps avg

Отчет Media Info

Общее
Полное имя : Ostrov.sokroviw_Moskovskij.dram.teatr.im.Pushkina.2013.XviD.SATRip.fenixclub.avi
Формат : AVI
Формат/Информация : Audio Video Interleave
Размер файла : 1,46 Гбайт
Продолжительность : 1 ч. 30 м.
Общий поток : 2307 Кбит/сек
Программа кодирования : VirtualDubModRus 1.5.10.2 (build 2542/release)
Библиотека кодирования : VirtualDub build 32842/release
Видео
Идентификатор : 0
Формат : MPEG-4 Visual
Профиль формата : Advanced Simple@L5
Параметр BVOP формата : 2
Параметр QPel формата : Нет
Параметр GMC формата : Без точки перехода
Параметр матрицы формата : Default (H.263)
Режим смешивания : Сжатый битовый поток
Идентификатор кодека : XVID
Идентификатор кодека/Подсказка : XviD
Продолжительность : 1 ч. 30 м.
Битрейт : 2169 Кбит/сек
Ширина : 720 пикселей
Высота : 400 пикселей
Соотношение сторон : 16:9
Частота кадров : 25,000 кадров/сек
Цветовое пространство : YUV
Субдискретизация насыщенности : 4:2:0
Битовая глубина : 8 бит
Тип развёртки : Прогрессивная
Метод сжатия : С потерями
Бит/(Пиксели*Кадры) : 0.301
Размер потока : 1,37 Гбайт (94%)
Библиотека кодирования : XviD 73
Аудио
Идентификатор : 1
Формат : MPEG Audio
Версия формата : Version 1
Профиль формата : Layer 3
Режим : Joint stereo
Расширение режима : MS Stereo
Идентификатор кодека : 55
Идентификатор кодека/Подсказка : MP3
Продолжительность : 1 ч. 30 м.
Вид битрейта : Постоянный
Битрейт : 128 Кбит/сек
Каналы : 2 канала
Частота : 44,1 КГц
Метод сжатия : С потерями
Размер потока : 82,7 Мбайт (6%)
Выравнивание : Разделение по промежуткам
Продолжительность промежутка : 40 мс. (1,00 видеокадр)
Время предзагрузки промежутка : 500 мс.
Библиотека кодирования : LAME3.98.2

Скриншоты


Альтернативный хост





Показать сообщения:    

Текущее время: 02-Дек 21:16

Часовой пояс: UTC + 3


Вы не можете начинать темы
Вы не можете отвечать на сообщения
Вы не можете редактировать свои сообщения
Вы не можете удалять свои сообщения
Вы не можете голосовать в опросах
Вы не можете прикреплять файлы к сообщениям
Вы не можете скачивать файлы