(Classical) Johann Joachim Quantz - Flute Concertos - Mary Oleskiewicz, Concerto Armonico, Miklos Spanyi - 2013, FLAC (image+.cue) lossless


Статистика раздачи [Обновить пиров]
Размер:  387 MB   |    Зарегистрирован:  8 месяцев 15 дней   |    Скачан:  0 раз

Полного источника не было: Никогда

 
   
 
 
 

[Цитировать]

Johann Joachim Quantz - Flute Concertos - Mary Oleskiewicz, Concerto Armonico, Miklós Spányi
Жанр: Classical
Год издания диска: 2013
Издатель (лейбл): Naxos
Номер по каталогу: 8.573120
Дата записи: 2011
Аудиокодек: FLAC
Тип рипа: image+.cue
Битрейт аудио: lossless
Продолжительность: 77:36
Источник: собственный рип
Наличие сканов в содержимом раздачи: да
Треклист:
Johann Joachim Quantz (1697-1773)
[1]-[3] Flute Concerto in A minor, QV 5:238
[4]-[6] Flute Concerto in G major, QV 5:165
[7]-[9] Flute Concerto in C minor, QV 5:38
[10]-[12] Flute Concerto in D minor, QV 5:81
Исполнители:
Mary Oleskiewicz Baroque Transverse Flute
Concerto Armonico
Miklós Spányi

Лог создания рипа

Exact Audio Copy V1.0 beta 3 from 29. August 2011
EAC extraction logfile from 29. January 2015, 21:20
Mary Oleskiewicz, Concerto Armonico, Miklos Spanyi / Quantz - Flute Concertos
Used drive : HL-DT-STDVDRAM GU70N Adapter: 0 ID: 0
Read mode : Secure
Utilize accurate stream : Yes
Defeat audio cache : Yes
Make use of C2 pointers : No
Read offset correction : 48
Overread into Lead-In and Lead-Out : No
Fill up missing offset samples with silence : Yes
Delete leading and trailing silent blocks : No
Null samples used in CRC calculations : Yes
Used interface : Native Win32 interface for Win NT & 2000
Used output format : User Defined Encoder
Selected bitrate : 128 kBit/s
Quality : High
Add ID3 tag : No
Command line compressor : C:\Program Files (x86)\Exact Audio Copy\Flac\flac.exe
Additional command line options : -V -8 -T "Date=%year%" -T "Genre=%genre%" %source%
TOC of the extracted CD
Track | Start | Length | Start sector | End sector
---------------------------------------------------------
1 | 0:00.00 | 8:13.47 | 0 | 37021
2 | 8:13.47 | 6:14.28 | 37022 | 65099
3 | 14:28.00 | 6:14.42 | 65100 | 93191
4 | 20:42.42 | 6:16.74 | 93192 | 121465
5 | 26:59.41 | 6:11.53 | 121466 | 149343
6 | 33:11.19 | 4:31.66 | 149344 | 169734
7 | 37:43.10 | 6:39.05 | 169735 | 199664
8 | 44:22.15 | 7:43.25 | 199665 | 234414
9 | 52:05.40 | 5:01.46 | 234415 | 257035
10 | 57:07.11 | 9:10.68 | 257036 | 298353
11 | 66:18.04 | 5:51.44 | 298354 | 324722
12 | 72:09.48 | 5:24.18 | 324723 | 349040
Range status and errors
Selected range
Filename C:\temp\Naxos_8.573120 - Quantz - Flute Concertos\Quantz - Flute Concertos.wav
Peak level 100.0 %
Extraction speed 2.3 X
Range quality 100.0 %
Test CRC C27978A2
Copy CRC C27978A2
Copy OK
No errors occurred
AccurateRip summary
Track 1 accurately ripped (confidence 3) [3EEED109] (AR v2)
Track 2 accurately ripped (confidence 3) [A1483C93] (AR v2)
Track 3 accurately ripped (confidence 3) [3C70C3D9] (AR v2)
Track 4 accurately ripped (confidence 3) [5BAF6336] (AR v2)
Track 5 accurately ripped (confidence 3) [39189C39] (AR v2)
Track 6 accurately ripped (confidence 3) [6F4448FF] (AR v2)
Track 7 accurately ripped (confidence 3) [B4719343] (AR v2)
Track 8 accurately ripped (confidence 3) [3E5946CE] (AR v2)
Track 9 accurately ripped (confidence 3) [E3F060F2] (AR v2)
Track 10 accurately ripped (confidence 3) [62B091FB] (AR v2)
Track 11 accurately ripped (confidence 3) [8D2757A0] (AR v2)
Track 12 accurately ripped (confidence 3) [43AD4D22] (AR v2)
All tracks accurately ripped
End of status report
==== Log checksum 7A419C7495F024E3444CEBCCF6CEBBD2DEB375F87E119B3765D7F990381A48E2 ====
[teatrix.ru].t20278.torrent 
Торрент: Зарегистрирован [ 2016-03-19 20:41 ] · 2FC45A67D6EE3FE216E25341312CC2725CCE7AC3

Скачать .torrent

Скачать

31 KB

Статус: проверено
Скачан: 0 раз
Размер: 387 MB
terms.php



Быстрый ответ

Имя:

      
Для отправки сообщений необходимо включить JavaScript
Показать сообщения:    

Текущее время: 04-Дек 13:11

Часовой пояс: UTC + 3


Вы можете начинать темы
Вы можете отвечать на сообщения
Вы не можете редактировать свои сообщения
Вы не можете удалять свои сообщения
Вы не можете голосовать в опросах
Вы не можете прикреплять файлы к сообщениям
Вы можете скачивать файлы