Любимые актеры. Ия Саввина (Андрей Зенин) [2014, Документальный, биография, кинематограф, SATRip]


Статистика раздачи [Обновить пиров]
Размер:  361 MB   |    Зарегистрирован:  8 месяцев 16 дней   |    Скачан:  0 раз

Полного источника не было: Никогда

 
   
 
 
 

[Цитировать]

Любимые актеры. Ия Саввина
Дата/Год выпуска: 2014
Страна: Россия, МТРК "Мир"
Жанр: Документальный, биография, кинематограф
Продолжительность: 00:26:02
Перевод: Не требуется
Русские субтитры: нет
Режиссер: Андрей Зенин
Описание: «Любимые актеры» — это фильм-портрет. Авторский взгляд на судьбу известного артиста. Ведущий программы — «коллекционер» актерских баек и историй. Нам интересен не только творческий путь актера, но и его личная жизнь. Его судьба непредсказуема. Взлеты, падения, надежды, разочарования. Нередко путь к славе оборачивается дорогой к забвению. Кроме главного героя в программе присутствуют его друзья, родственники, коллеги.
качество: SATRip
формат: AVI
Видео: 688x512 (1.34:1), 25 fps, XviD build 50 ~1799 kbps avg, 0.20 bit/pixel
Аудио: 44.100 kHz, MPEG Layer 3, 2 ch, ~128.00 kbps avg

MediaInfo

Complete name                            : C:\Users\Home\Desktop\Proba\Любимые актеры.Ия Саввина.2014.SATRip.avi
Format : AVI
Format/Info : Audio Video Interleave
File size : 361 MiB
Duration : 26mn 2s
Overall bit rate : 1 938 Kbps
Writing application : VirtualDubMod 1.5.10.3 | www.virtualdub-fr.org || (build 2550/release)
Writing library : Boilsoft AVI tool build 30012/release
Video
ID : 0
Format : MPEG-4 Visual
Format profile : Advanced Simple@L5
Format settings, BVOP : 2
Format settings, QPel : No
Format settings, GMC : No warppoints
Format settings, Matrix : Default (MPEG)
Codec ID : XVID
Codec ID/Hint : XviD
Duration : 26mn 2s
Bit rate : 1 800 Kbps
Width : 688 pixels
Height : 512 pixels
Display aspect ratio : 4:3
Frame rate : 25.000 fps
Color space : YUV
Chroma subsampling : 4:2:0
Bit depth : 8 bits
Scan type : Progressive
Compression mode : Lossy
Bits/(Pixel*Frame) : 0.204
Stream size : 335 MiB (93%)
Writing library : XviD 1.2.1 (UTC 2008-12-04)
Audio
ID : 1
Format : MPEG Audio
Format version : Version 1
Format profile : Layer 3
Mode : Joint stereo
Mode extension : MS Stereo
Codec ID : 55
Codec ID/Hint : MP3
Duration : 26mn 2s
Bit rate mode : Constant
Bit rate : 128 Kbps
Channel count : 2 channels
Sampling rate : 44.1 KHz
Compression mode : Lossy
Stream size : 23.8 MiB (7%)
Alignment : Split accross interleaves
Interleave, duration : 40 ms (1.00 video frame)
Interleave, preload duration : 500 ms
Writing library : LAME3.98.4

Скриншоты

[teatrix.ru].t20279.torrent 
Торрент: Зарегистрирован [ 2016-03-19 20:41 ] · E681E4BB7272F199F5B73C908217409C55AEFD90

Скачать .torrent

Скачать

8 KB

Статус: проверено
Скачан: 0 раз
Размер: 361 MB
terms.php



Показать сообщения:    

Текущее время: 04-Дек 23:25

Часовой пояс: UTC + 3


Вы не можете начинать темы
Вы не можете отвечать на сообщения
Вы не можете редактировать свои сообщения
Вы не можете удалять свои сообщения
Вы не можете голосовать в опросах
Вы не можете прикреплять файлы к сообщениям
Вы можете скачивать файлы