[TR24][SM][OF] J.S. Bach - The Art of Fugue - Angela Hewitt - 2014 (Classical)


Статистика раздачи [Обновить пиров]
Размер:  695 MB   |    Зарегистрирован:  10 месяцев 4 дня   |    Скачан:  0 раз

Полного источника не было: Никогда

 
   
 
 
 

[Цитировать]

Johann Sebastian Bach (1685-1750)
Формат записи/Источник записи: [TR24][SM][OF]
Наличие водяных знаков: Нет
Издание: CDA67980
Год издания/переиздания диска: 2014
Жанр: Classical
Издатель(лейбл): Hyperion Records
Продолжительность: 01:29:40
Наличие сканов в содержимом раздачи: cover + booklet
Треклист:
The Art of Fugue BWV1080
1 Contrapunctus 1 [3'24]
2 Contrapunctus 2 [2'47]
3 Contrapunctus 3 [3'18]
4 Contrapunctus 4 [4'37]
5 Contrapunctus 5 [3'16]
6 Contrapunctus 6 'in stylo Francese' [5'34]
7 Contrapunctus 7 'per augmentationem et diminutionem' [4'39]
8 Contrapunctus 8 [6'07]
9 Contrapunctus 9 'alla duodecima' [2'49]
10 Contrapunctus 10 'alla decima' [5'38]
11 Contrapunctus 11 [7'03]
12 Contrapunctus 12 Rectus [3'15]
13 Contrapunctus 12 Inversus [3'08]
14 Contrapunctus 13 Rectus [2'22]
15 Contrapunctus 13 Inversus [2'24]
16 Canon per augmentationem in contrario motu [4'35]
17 Canon alla ottava [2'21]
18 Canon alla decima in contrapunto alla terza [4'52]
19 Canon alla duodecima in contrapunto alla quinta [2'23]
20 Contrapunctus 14 (Fuga a 3 soggetti) [9'54]
21 Wenn wir in höchsten Nöten sein 'Vor deinen Thron tret ich hiermit' BWV668a [5'14]
Контейнер: FLAC (*.flac)
Тип рипа: tracks
Разрядность: 24/44,1
Формат: WAV (flac.ape.wv)
Количество каналов: 2.0
Angela Hewitt piano

http://www.hyperion-records.co.uk/dc.asp?dc=D_CDA67980-

Dynamic Range Meter

foobar2000 1.2.6 / Dynamic Range Meter 1.1.1
log date: 2015-02-03 20:34:41
--------------------------------------------------------------------------------
Analyzed: Angela Hewitt / J.S. Bach: The Art of Fugue
--------------------------------------------------------------------------------
DR Peak RMS Duration Track
--------------------------------------------------------------------------------
DR12 -3.79 dB -22.23 dB 3:24 01-The Art of Fugue, BWV1080 - Contrapunctus 1
DR12 -4.23 dB -21.67 dB 2:47 02-The Art of Fugue, BWV1080 - Contrapunctus 2
DR12 -5.83 dB -23.87 dB 3:18 03-The Art of Fugue, BWV1080 - Contrapunctus 3
DR12 -5.31 dB -22.51 dB 4:37 04-The Art of Fugue, BWV1080 - Contrapunctus 4
DR14 -3.62 dB -23.19 dB 3:16 05-The Art of Fugue, BWV1080 - Contrapunctus 5
DR15 -0.10 dB -21.81 dB 5:34 06-The Art of Fugue, BWV1080 - Contrapunctus 6 'in stylo Francese'
DR13 -4.52 dB -22.90 dB 4:39 07-The Art of Fugue, BWV1080 - Contrapunctus 7 'per augmentationem et diminutionem'
DR13 -2.98 dB -21.78 dB 6:07 08-The Art of Fugue, BWV1080 - Contrapunctus 8
DR12 -4.32 dB -21.72 dB 2:49 09-The Art of Fugue, BWV1080 - Contrapunctus 9 'alla duodecima'
DR14 -4.94 dB -23.84 dB 5:38 10-The Art of Fugue, BWV1080 - Contrapunctus 10 'alla decima'
DR14 -0.12 dB -21.66 dB 7:03 11-The Art of Fugue, BWV1080 - Contrapunctus 11
DR12 -7.09 dB -24.20 dB 3:15 12-The Art of Fugue, BWV1080 - Contrapunctus 12 Rectus
DR12 -5.55 dB -23.36 dB 3:08 13-The Art of Fugue, BWV1080 - Contrapunctus 12 Inversus
DR13 -5.31 dB -21.76 dB 2:22 14-The Art of Fugue, BWV1080 - Contrapunctus 13 Rectus
DR11 -6.00 dB -22.27 dB 2:24 15-The Art of Fugue, BWV1080 - Contrapunctus 13 Inversus
DR12 -10.49 dB -25.61 dB 4:35 16-The Art of Fugue, BWV1080 - Canon per augmentationem in contrario motu
DR12 -5.28 dB -21.14 dB 2:21 17-The Art of Fugue, BWV1080 - Canon alla ottava
DR11 -10.26 dB -25.96 dB 4:52 18-The Art of Fugue, BWV1080 - Canon alla decima in contrapunto alla terza
DR12 -5.92 dB -23.33 dB 2:23 19-The Art of Fugue, BWV1080 - Canon alla duodecima in contrapunto alla quinta
DR14 -6.07 dB -24.85 dB 9:54 20-The Art of Fugue, BWV1080 - Contrapunctus 14 (Fuga a 3 soggetti)
DR15 -6.51 dB -27.50 dB 5:14 21-Wenn wir in höchsten Nöten sein 'Vor deinen Thron tret ich hiermit', BWV668a
--------------------------------------------------------------------------------
Number of tracks: 21
Official DR value: DR13
Samplerate: 44100 Hz
Channels: 2
Bits per sample: 24
Bitrate: 1001 kbps
Codec: FLAC
================================================================================
[teatrix.ru].t20282.torrent 
Торрент: Зарегистрирован [ 2016-03-19 20:41 ] · C96655B80A4D0692F016D8A21564B21C95E50F07

Скачать .torrent

Скачать

16 KB

Статус: проверено
Скачан: 0 раз
Размер: 695 MB
terms.php



Быстрый ответ

Имя:

      
Для отправки сообщений необходимо включить JavaScript
Показать сообщения:    

Текущее время: 24-Янв 12:14

Часовой пояс: UTC + 3


Вы можете начинать темы
Вы можете отвечать на сообщения
Вы не можете редактировать свои сообщения
Вы не можете удалять свои сообщения
Вы не можете голосовать в опросах
Вы не можете прикреплять файлы к сообщениям
Вы можете скачивать файлы