[TR24][SM][OF] Isaac Albeniz - Iberia & other late piano music / Marc-Andre Hamelin - 2005 (Classical)


Статистика раздачи [Обновить пиров]
Размер:  583 MB   |    Зарегистрирован:  10 месяцев 5 дней   |    Скачан:  0 раз

Полного источника не было: Никогда

 
   
 
 
 

[Цитировать]

Isaac Albéniz (1860-1909)
Формат записи/Источник записи: [TR24][SM][OF]
Наличие водяных знаков: Нет
Издание: CDA67476/7
Год издания/переиздания диска: 2005
Жанр: Classical
Издатель(лейбл): Hyperion Records
Продолжительность: 02:05:05
Наличие сканов в содержимом раздачи: Да
Треклист:
Iberia 1905-8
1. Book 1 No 1: Evocación [6'23]
2. Book 1 No 2: El puerto [3'56]
3. Book 1 No 3: El Corpus en Sevilla [8'14]
4. Book 2 No 1: Rondeña [6'38]
5. Book 2 No 2: Almería [10'48]
6. Book 2 No 3: Triana [5'07]
7. Book 3 No 1: El Albaicín [7'27]
8. Book 3 No 2: El polo [6'47]
9. Book 3 No 3: Lavapiés [6'20]
10. Book 4 No 1: Málaga [5'01]
11. Book 4 No 2: Jerez [9'57]
12. Book 4 No 3: Eritaña [5'08]
13. La vega [16'00]
Yvonne en visite!
14. Movement 1: La révérence! [1'52]
15. Movement 2: Joyeuse rencontre et quelques pénibles événements! [4'34]
España. Souvenirs
16. Movement 1: Preludio [8'43]
17. Movement 2: Asturias [3'30]
18. Navarra [8'40]
Контейнер: FLAC (*.flac)
Тип рипа: tracks
Разрядность: 24/44,1
Формат: WAV (flac.ape.wv)
Количество каналов: 2.0
Marc-André Hamelin piano

http://www.hyperion-records.co.uk/dc.asp?dc=D_CDA67476/7-

Dynamic Range Meter

foobar2000 1.2.6 / Dynamic Range Meter 1.1.1
log date: 2015-02-03 21:31:37
--------------------------------------------------------------------------------
Analyzed: Marc-André Hamelin / Albéniz: Iberia and other late piano music
--------------------------------------------------------------------------------
DR Peak RMS Duration Track
--------------------------------------------------------------------------------
DR19 -4.14 dB -31.07 dB 6:27 01-Albeniz - Iberia - Book 1 No 1. Evocacion
DR13 -2.58 dB -24.32 dB 3:58 02-Iberia - Book 1 No 2. El puerto
DR14 -2.53 dB -22.90 dB 8:19 03-Iberia - Book 1 No 3. El Corpus en Sevilla
DR15 -4.08 dB -25.55 dB 6:40 04-Iberia - Book 2 No 1. Rondena
DR18 -2.77 dB -28.74 dB 10:51 05-Iberia - Book 2 No 2. Almeria
DR15 -2.97 dB -23.78 dB 5:09 06-Iberia - Book 2 No 3. Triana
DR15 -2.79 dB -24.38 dB 7:28 07-Iberia - Book 3 No 1. El Albaicin
DR15 -3.38 dB -24.40 dB 6:47 08-Iberia - Book 3 No 2. El polo
DR15 -1.58 dB -20.59 dB 6:20 09-Iberia - Book 3 No 3. Lavapies
--------------------------------------------------------------------------------
Number of tracks: 9
Official DR value: DR15
Samplerate: 44100 Hz
Channels: 2
Bits per sample: 24
Bitrate: 765 kbps
Codec: FLAC
================================================================================
foobar2000 1.2.6 / Dynamic Range Meter 1.1.1
log date: 2015-02-03 21:22:55
--------------------------------------------------------------------------------
Analyzed: Marc-André Hamelin / Albéniz: Iberia and other late piano music
--------------------------------------------------------------------------------
DR Peak RMS Duration Track
--------------------------------------------------------------------------------
DR15 -3.32 dB -22.97 dB 5:02 10-Iberia - Book 4 No 1. Malaga
DR15 -4.37 dB -25.90 dB 9:59 11-Iberia - Book 4 No 2. Jerez
DR14 -4.19 dB -22.21 dB 5:14 12-Iberia - Book 4 No 3. Eritana
DR17 -2.47 dB -27.68 dB 16:05 13-La vega
DR14 -13.92 dB -34.19 dB 1:54 14-Yvonne en visite - Movement 1. La reverence
DR16 -3.56 dB -25.95 dB 4:37 15-Yvonne en visite - Movement 2. Joyeuse rencontre et quelques penibles evenements
DR16 -7.22 dB -30.62 dB 8:47 16-Espana. Souvenirs - Movement 1. Preludio
DR16 -7.63 dB -30.53 dB 3:35 17-Espana. Souvenirs - Movement 2. Asturias
DR15 -2.98 dB -21.39 dB 8:40 18-Bolcom. Navarra
--------------------------------------------------------------------------------
Number of tracks: 9
Official DR value: DR15
Samplerate: 44100 Hz
Channels: 2
Bits per sample: 24
Bitrate: 747 kbps
Codec: FLAC
================================================================================
[teatrix.ru].t20283.torrent 
Торрент: Зарегистрирован [ 2016-03-19 20:41 ] · D97A428399F7802FDF6085E3EA0C37BBF7F0F79C

Скачать .torrent

Скачать

13 KB

Статус: проверено
Скачан: 0 раз
Размер: 583 MB
terms.php



Быстрый ответ

Имя:

      
Для отправки сообщений необходимо включить JavaScript
Показать сообщения:    

Текущее время: 25-Янв 00:22

Часовой пояс: UTC + 3


Вы можете начинать темы
Вы можете отвечать на сообщения
Вы не можете редактировать свои сообщения
Вы не можете удалять свои сообщения
Вы не можете голосовать в опросах
Вы не можете прикреплять файлы к сообщениям
Вы можете скачивать файлы