(Orchestral) Аарре Мериканто / Aarre Merikanto - Meet the Composer: Orchestral works & Concertos (L.Segerstam, E-P.Salonen, J-P.Saraste, Kaija Saarikettu, J.de Preist, Finnish RSO, Helsinki PO, Avanti CO) 2CD - 1997, APE (image+.cue) lossless


 

[Цитировать]

Aarre Merikanto - Meet the Composer: Orchestral works & Concertos
Жанр: Orchestral
Страна-производитель диска: Finland
Год издания диска: 1997
Издатель (лейбл): Finlandia/Warner
Номер по каталогу: 4509-99970-2
Дата записи: 1987-91
Аудиокодек: APE
Тип рипа: image+.cue
Битрейт аудио: lossless
Продолжительность: 73:56+76:47
Источник: скачано с
Наличие сканов в содержимом раздачи: да
Треклист:

Aarre Merikanto (1893-1958)


CD 1

1-10. Ten pieces for Orchestra (1930) 21'45
I. Largo misterioso (3:59)
II. Molto andante e serioso (2:27)
III. Allegro scherzando (0:55)
IV. Largo con espressione (2:49)
V. Lento spianato (1:12)
VI. Allegro moderato (1:14)
VII. Andante sognante (2:38)
VIII. Grave (2:30)
IX. Risoluto (2:11)
X. Vivace giocoso (2:36)
11. Fantasy for orchestra (1923) (17:23)
12-14. Violin concerto № 2 (1925)
I. Largo (7:24)
II. Adagio (1:59)
III. Vivace (6:59)
15-17. Violin concerto № 4 (1954)
I. Allegro (4:41)
II. Largo (6:11)
III. Allegro giosamente (6:42)
CD 2
01 Konzertstuck for Cello and chamber orchestra (1926) (13:52)
02 Symphonic study (1928) (18:14)
03 Pan, symphonic poem for orchestra (1924) (11:53)
04 Notturno for orchestra (1929) (9:47)
05 Largo misterioso from '10 Pieces' (1930) (4:14)
06 Genesis for soprano, chorus and orchestra (1956) (18:44)
Исполнители:
Avanti Chamber Orchestra/Ari Angervo, cond. (CD1: 1-10)
Finnish Radio Symphony Orchestra/ Leif Segerstam, cond. (CD1: 11; CD2: 2,3,5)
Kaija Saarikettu, violin/Helsinki Philharmonic Orchestra/ James DePreist, cond. (CD1: 12-17)
Anssi Karttunen, cello/London Sinfonietta/Esa-Pekka Salonen, cond. (CD2: 1)
Finnish Radio Symphony Orchestra/Jukka-Pekka Saraste, cond. (CD2: 4)
Karita Mattila, soprano/Savonlinna Opera Festival Choir/Lahti Symphony Orchestra /Ulf Sõderblom, cond. (CD2: 6)
Recorded in 1987, 1988, 1990, 1991

Лог создания рипа

CD 1
Exact Audio Copy V0.99 prebeta 4 from 23. January 2008
EAC extraction logfile from 29. March 2010, 10:50
Aarre Merikanto / Meet the Composer, Disc 1
Used drive : HL-DT-STDVDRAM GSA-4120B Adapter: 0 ID: 0
Read mode : Secure
Utilize accurate stream : Yes
Defeat audio cache : Yes
Make use of C2 pointers : No
Read offset correction : 667
Overread into Lead-In and Lead-Out : No
Fill up missing offset samples with silence : Yes
Delete leading and trailing silent blocks : No
Null samples used in CRC calculations : No
Used interface : Installed external ASPI interface
Used output format : Monkey's Audio Lossless Encoder v3.99 DLL
Sample format : Fast Lossless Compression
TOC of the extracted CD
Track | Start | Length | Start sector | End sector
---------------------------------------------------------
1 | 0:00.00 | 3:59.15 | 0 | 17939
2 | 3:59.15 | 2:27.62 | 17940 | 29026
3 | 6:27.02 | 0:55.48 | 29027 | 33199
4 | 7:22.50 | 2:49.14 | 33200 | 45888
5 | 10:11.64 | 1:12.68 | 45889 | 51356
6 | 11:24.57 | 1:14.20 | 51357 | 56926
7 | 12:39.02 | 2:38.33 | 56927 | 68809
8 | 15:17.35 | 2:30.45 | 68810 | 80104
9 | 17:48.05 | 2:11.55 | 80105 | 89984
10 | 19:59.60 | 2:36.00 | 89985 | 101684
11 | 22:35.60 | 17:23.00 | 101685 | 179909
12 | 39:58.60 | 7:24.15 | 179910 | 213224
13 | 47:23.00 | 1:59.65 | 213225 | 222214
14 | 49:22.65 | 6:59.00 | 222215 | 253639
15 | 56:21.65 | 4:41.47 | 253640 | 274761
16 | 61:03.37 | 6:11.05 | 274762 | 302591
17 | 67:14.42 | 6:42.23 | 302592 | 332764
Range status and errors
Selected range
Filename C:\TEMP\Aarre Merikanto - Meet the Composer, Disc 1.ape
Peak level 96.0 %
Range quality 100.0 %
Copy CRC C7758541
Copy OK
No errors occurred
AccurateRip summary
Track 1 accurately ripped (confidence 1) [9DB87E94]
Track 2 accurately ripped (confidence 1) [94C0C54C]
Track 3 accurately ripped (confidence 1) [AD62AF7F]
Track 4 accurately ripped (confidence 1) [10CCAB0E]
Track 5 accurately ripped (confidence 1) [CF92E51B]
Track 6 accurately ripped (confidence 1) [16C89E69]
Track 7 accurately ripped (confidence 1) [24289975]
Track 8 accurately ripped (confidence 1) [C9444663]
Track 9 accurately ripped (confidence 1) [87F93ECF]
Track 10 accurately ripped (confidence 1) [F6A1B6D1]
Track 11 accurately ripped (confidence 1) [C0704185]
Track 12 accurately ripped (confidence 1) [CB5EA3E3]
Track 13 accurately ripped (confidence 1) [2386A6F4]
Track 14 accurately ripped (confidence 1) [05BBF63F]
Track 15 accurately ripped (confidence 1) [F21A7CF8]
Track 16 accurately ripped (confidence 1) [028C67D5]
Track 17 cannot be verified as accurate (confidence 1) [0516A846], AccurateRip returned [D043EE6E]
16 track(s) accurately ripped
1 track(s) could not be verified as accurate
Some tracks could not be verified as accurate
End of status report
CD 2
Exact Audio Copy V0.99 prebeta 4 from 23. January 2008
EAC extraction logfile from 29. March 2010, 11:11
Aarre Merikanto / Meet the Composer, Disc 2
Used drive : HL-DT-STDVDRAM GSA-4120B Adapter: 0 ID: 0
Read mode : Secure
Utilize accurate stream : Yes
Defeat audio cache : Yes
Make use of C2 pointers : No
Read offset correction : 667
Overread into Lead-In and Lead-Out : No
Fill up missing offset samples with silence : Yes
Delete leading and trailing silent blocks : No
Null samples used in CRC calculations : No
Used interface : Installed external ASPI interface
Used output format : Monkey's Audio Lossless Encoder v3.99 DLL
Sample format : Fast Lossless Compression
TOC of the extracted CD
Track | Start | Length | Start sector | End sector
---------------------------------------------------------
1 | 0:00.00 | 13:52.72 | 0 | 62471
2 | 13:52.72 | 18:14.65 | 62472 | 144586
3 | 32:07.62 | 11:53.68 | 144587 | 198129
4 | 44:01.55 | 9:47.00 | 198130 | 242154
5 | 53:48.55 | 4:14.50 | 242155 | 261254
6 | 58:03.30 | 18:44.12 | 261255 | 345566
Range status and errors
Selected range
Filename C:\TEMP\Aarre Merikanto - Meet the Composer, Disc 2.ape
Peak level 95.9 %
Range quality 100.0 %
Copy CRC D1BE8EB6
Copy OK
No errors occurred
AccurateRip summary
Track 1 not present in database
Track 2 not present in database
Track 3 not present in database
Track 4 not present in database
Track 5 not present in database
Track 6 not present in database
None of the tracks are present in the AccurateRip database
End of status report
Доп. информация: Финны в шутку называют Аарре Мериканто несвоевременным композитором. Родившись в одной из ведущих финских музыкальных семей (его отец - Оскар Мериканто), он был слишком необычным явлением культурной жизни Финляндии того времени, изолированной от остального мира. Среди публики властвовали консервативные вкусы, творческие эксперименты не приветствовались (напр., 4я симфония Сибелиуса, ставшая точкой отсчёта для 18-летнего М., была охарактеризована критикой как "непонятная, нелепая и кубистская"). Стремясь преодолеть изоляцию, Мериканто учился у импрессиониста Эркки Мелартина (тот привил ему вкус к Дебюсси), неоклассика Макса Регера (мастера контрапункта и строгих форм), в России у мастера красочной оркестровки Сергея Василенко (там его кумиром на всю жизнь стал Скрябин). Первые его зрелые сочинения 20х годов порицали за крайний радикализм - таковым считалась остроактуальная на то время во всём мире смесь импрессионизма и экспрессионизма, на самом деле не порывавшая связь ни с поздним романтизмом, ни с народной музыкой. Почём зря критики называли его футуристом, кубистом, экстремистом, музыкальным большевиком, упрекали в стремлении к крайностям. По прошествии времени видится, что из первых опытов пионеров финского модерна А. Мериканто, В. Раитио, Э. Пингу выросло нечто принципиально новое и по языку, и по духу. Однако это стало ясно лишь в зпоху Э. Раутаваары (ученика Мериканто) и Калеви Ахо, а в 20х финский модерн, обещавший так много для музыки северных стран, потерпел крах, сам же зачинщик уже в 1930 пришёл к новой простоте. Финская музыкальная жизнь в 50х всё же оказала Мериканто признание, которого он был лишен в лучшие годы - он был назначен профессором композиции Академии им. Сибелиуса, а по финскому радио впервые были исполнены многие его произведения, десятки лет дожидавшиеся этого. Сегодня можно сказать, что вклад Аарре Мериканто в развитие музыкального искусства Финляндии XX в. считается общепризнанным.

О диске

Первым оркестровым произведением радикального периода Мериканто была пышная экспрессионистская "Фантазия" для огромного четверного оркестра (1923), премьера которой была отложена до 1952г. - только тогда оркестр такого состава удалось собрать. Музыка Фантазии мощно пульсирует, светится богатыми квази-скрябинскими цветовыми текстурами.
Следующим оркестровым произведением Мериканто была симфоническая поэма "Пан" (1924), которая имела значительный успех среди прогрессивной публики. По сравнению с Фантазией, в Пане оркестровое письмо композитора более уверенное и ясное, и хотя музыка стилистически смелее - почти атональная, но текстуры более прозрачные, близкие к своеобразному скандинавскому импрессионизму.
Пиком модернистского периода Мериканто стал "Симфонический этюд" (1928). Произведение пережило автора в повреждённом виде - 18 страниц партитуры из 100 было вырвано отчаявшимся композитором. Этюд был восстановлен Пааво Хейниненом и впервые исполнен в 1982г. Стиль музыки - графичный, линеарный, острый и диссонирующий. Мелодий принципиально нет, в приоритете атематизм, но можно выделить шесть основных разделов: краткое введение, лирическое Allegro, мелодичное Andante, скерцо, медленный спокойный эпизод, второе скерцо и медленный эпилог. Ноктюрн (1929) более прост по средствам выражения - медленная ночная музыка с элементами политональности, написанная для обычного тройного оркестра.
Стилистические упрощения, порывающие с радикализмом, становятся еще более очевидными в лирических "Десяти пьесах для оркестра" (1930). Первая из пьес - эфемерно красивое Ларго Misterioso датируемое 1927г. (часть Партиты), последняя - танец из провалившейся оперы "Юха" (1922). Между ними - ещё восемь "мимолётностей" различных по стилю, настроению и инструментальному составу (практически камерному). Таинственно-мистический "Генезис" для сопрано, хора и оркестра (1956) - последний капитальный труд Мериканто.
Знаменателен вклад Мериканто в развитие финского инструментального концерта. Им написано два концерта для виолончели, три для фортепиано и четыре — для скрипки. В них сказывается знание инструментов, и в противовес виртуозности часто можно слышать разделы, проникнутые лирическим раздумьем. Из скрипичных концертов особенно популярны Второй (1925) и Четвёртый (1954) с подзаголовком "Радуга", из фортепианных - 3 й. Также пользуется известностью Концертштюк для виолончели и камерного оркестра (1926), первоначально написанный, как и Интродукция Равеля для арфы, флейты, кларнета и струнного квартета.



Показать сообщения:    

Текущее время: 20-Янв 16:54

Часовой пояс: UTC + 3


Вы не можете начинать темы
Вы не можете отвечать на сообщения
Вы не можете редактировать свои сообщения
Вы не можете удалять свои сообщения
Вы не можете голосовать в опросах
Вы не можете прикреплять файлы к сообщениям
Вы не можете скачивать файлы