(Classical) Charles Ives - Symphony No.3; Ragtime Dances; Robert Browning Overture - Rundfunk-Sinfonieorchester Saarbrucken, Michael Stern - 2006, FLAC (image+.cue) lossless


 

[Цитировать]

Charles Ives - Symphony No.3; Ragtime Dances; Robert Browning Overture - Rundfunk-Sinfonieorchester Saarbrücken, Michael Stern
Жанр: Classical
Страна-производитель диска: Germany
Год издания диска: 2006
Издатель (лейбл): col legno
Дата записи: 1999, 2000
Аудиокодек: FLAC
Тип рипа: image+.cue
Битрейт аудио: lossless
Продолжительность: 60:27
Источник: собственный рип
Наличие сканов в содержимом раздачи: да
Треклист:
Charles Ives (1874-1954)
[1]-[3] Symphony No.3 'The Camp Meeting' (1901-1904)
[4]-[7] Ragtime Dances (1899-1904)
[8] Robert Browning Overture (1908-1912)
Исполнители:
Rundfunk-Sinfonieorchester Saarbrücken
Michael Stern
conductor

Лог создания рипа

Exact Audio Copy V1.0 beta 3 from 29. August 2011
EAC extraction logfile from 3. November 2014, 21:30
Rundfunk-Sinfonieorchester Saarbrucken, Michael Stern / Ives - Symphony No.3
Used drive : HL-DT-STDVDRAM GU70N Adapter: 0 ID: 0
Read mode : Secure
Utilize accurate stream : Yes
Defeat audio cache : Yes
Make use of C2 pointers : No
Read offset correction : 48
Overread into Lead-In and Lead-Out : No
Fill up missing offset samples with silence : Yes
Delete leading and trailing silent blocks : No
Null samples used in CRC calculations : Yes
Used interface : Native Win32 interface for Win NT & 2000
Used output format : User Defined Encoder
Selected bitrate : 128 kBit/s
Quality : High
Add ID3 tag : No
Command line compressor : C:\Program Files (x86)\Exact Audio Copy\Flac\flac.exe
Additional command line options : -V -8 -T "Date=%year%" -T "Genre=%genre%" %source%
TOC of the extracted CD
Track | Start | Length | Start sector | End sector
---------------------------------------------------------
1 | 0:00.00 | 7:55.56 | 0 | 35680
2 | 7:55.56 | 6:36.37 | 35681 | 65417
3 | 14:32.18 | 7:33.57 | 65418 | 99449
4 | 22:06.00 | 3:34.17 | 99450 | 115516
5 | 25:40.17 | 2:20.23 | 115517 | 126039
6 | 28:00.40 | 3:12.07 | 126040 | 140446
7 | 31:12.47 | 3:08.69 | 140447 | 154615
8 | 34:21.41 | 26:03.25 | 154616 | 271865
Range status and errors
Selected range
Filename C:\temp\Ives - Symphony No.3\Ives - Symphony No.3.wav
Peak level 99.9 %
Extraction speed 5.1 X
Range quality 100.0 %
Test CRC 724E3FED
Copy CRC 724E3FED
Copy OK
No errors occurred
AccurateRip summary
Track 1 not present in database
Track 2 not present in database
Track 3 not present in database
Track 4 not present in database
Track 5 not present in database
Track 6 not present in database
Track 7 not present in database
Track 8 not present in database
None of the tracks are present in the AccurateRip database
End of status report
==== Log checksum B8E69C9213418B861C3201F164633496906356D516501D1ACB7BE8BD5BF5032D ====



Показать сообщения:    

Текущее время: 04-Дек 11:14

Часовой пояс: UTC + 3


Вы не можете начинать темы
Вы не можете отвечать на сообщения
Вы не можете редактировать свои сообщения
Вы не можете удалять свои сообщения
Вы не можете голосовать в опросах
Вы не можете прикреплять файлы к сообщениям
Вы не можете скачивать файлы