Ксения, дочь Куприна (Галина Огурная) [2012, Документальный, биографический, исторический, DVDRip]


Статистика раздачи [Обновить пиров]
Размер:  600 MB   |    Зарегистрирован:  8 месяцев 18 дней   |    Скачан:  0 раз

Полного источника не было: Никогда

 
   
 
 
 

[Цитировать]

Ксения, дочь Куприна
Дата/Год выпуска: 2012
Страна: Россия, ТК "Культура", Центр Президентских програм
Жанр: Документальный, биографический, исторический
Продолжительность: 00:39:08
Перевод: Не требуется
Русские субтитры: нет
Режиссер: Галина Огурная
Описание: Казалось, что жизнь улыбалась Ксении Куприной – красавица, любимая дочь известного русского писателя, звезда парижских домов мод и немого кино Франции. Но была и другая сторона медали: паспорт беженки с печатью "апатрид", разлука с родителями, которые без нее вернулись на родину. А через 20 лет собственное возвращение в страну, где ее ждали новые испытания и в которых она, дочь своего отца, проявила настоящий русский характер.
качество: DVDRip
формат: AVI
Видео: 704x528 (1.33:1), 25 fps, XviD build 50 ~1941 kbps avg, 0.21 bit/pixel
Аудио: 48 kHz, AC3 Dolby Digital, 2/0 (L,R) ch, ~192 kbps

MediaInfo

Полное имя                               : E:\Мои рипы\Отработано\Ксения.дочь Куприна.2012.XviD.DVDRip.avi
Формат : AVI
Формат/Информация : Audio Video Interleave
Размер файла : 600 Мбайт
Продолжительность : 39 м.
Общий поток : 2143 Кбит/сек
Программа кодирования : VirtualDubMod 1.5.10.2 (build 2540/release)
Библиотека кодирования : VirtualDubMod build 2540/release
Видео
Идентификатор : 0
Формат : MPEG-4 Visual
Профиль формата : Advanced Simple@L5
Параметр BVOP формата : 4
Параметр QPel формата : Нет
Параметр GMC формата : Без точки перехода
Параметр матрицы формата : Default (H.263)
Идентификатор кодека : XVID
Идентификатор кодека/Подсказка : XviD
Продолжительность : 39 м.
Битрейт : 1942 Кбит/сек
Ширина : 704 пикселя
Высота : 528 пикселей
Соотношение сторон : 4:3
Частота кадров : 25,000 кадров/сек
Цветовое пространство : YUV
Субдискретизация насыщенности : 4:2:0
Битовая глубина : 8 бит
Тип развёртки : Прогрессивная
Метод сжатия : С потерями
Бит/(Пиксели*Кадры) : 0.209
Размер потока : 543 Мбайт (91%)
Библиотека кодирования : XviD 1.2.1 (UTC 2008-12-04)
Аудио
Идентификатор : 1
Формат : AC-3
Формат/Информация : Audio Coding 3
Расширение режима : CM (complete main)
Параметр Endianness формата : Big
Идентификатор кодека : 2000
Продолжительность : 39 м.
Вид битрейта : Постоянный
Битрейт : 192 Кбит/сек
Каналы : 2 канала
Расположение каналов : Front: L R
Частота : 48,0 КГц
Битовая глубина : 16 бит
Метод сжатия : С потерями
Размер потока : 53,7 Мбайт (9%)
Выравнивание : Разделение по промежуткам
Продолжительность промежутка : 40 мс. (1,00 видеокадр)
Время предзагрузки промежутка : 500 мс.

Скриншоты

[teatrix.ru].t20287.torrent 
Торрент: Зарегистрирован [ 2016-03-19 20:41 ] · 2246EECD643E8AAC9FD008DBA7DF302F713E215D

Скачать .torrent

Скачать

12 KB

Статус: проверено
Скачан: 0 раз
Размер: 600 MB
terms.php



Быстрый ответ

Имя:

      
Для отправки сообщений необходимо включить JavaScript
Показать сообщения:    

Текущее время: 07-Дек 00:49

Часовой пояс: UTC + 3


Вы можете начинать темы
Вы можете отвечать на сообщения
Вы не можете редактировать свои сообщения
Вы не можете удалять свои сообщения
Вы не можете голосовать в опросах
Вы не можете прикреплять файлы к сообщениям
Вы можете скачивать файлы