Последний подданный Российской империи (Валерий Дёмин, Людмила Дёмина) [2013, Документальный, биография, история, DVDRip]


Статистика раздачи [Обновить пиров]
Размер:  550 MB   |    Зарегистрирован:  10 месяцев   |    Скачан:  0 раз

Полного источника не было: Никогда

 
   
 
 
 

[Цитировать]

Последний подданный Российской империи
Дата/Год выпуска: 2013
Страна: Россия, ВГТРК, ТК Культура
Жанр: Документальный, биография, история
Продолжительность: 00:40:28
Перевод: Не требуется
Режиссер: Валерий Дёмин, Людмила Дёмина
Описание: Андрей Шмеман всю жизнь прожил с так называемым нансеновским паспортом - временным удостоверением личности, что сделало его пребывание на французской земле крайне сложным. Андрей Шмеман - сын офицера лейб-гвардии Семеновского полка Дмитрия Николаевича Шмемана. В 1919 году Дмитрий Шмеман покинул Россию вместе с войсками Юденича. Андрей и его брат Александр родились уже в Ревеле (ныне Таллин) в 1921 году. В 1929 году Шмеманы переехали во Францию... Более полувека Андрей Шмеман являлся старостой Знаменской церкви в Париже, был иподиаконом. Стал одним из инициаторов создания общественной организации "Движение за поместное православие русской традиции в Западной Европе" и всегда оставался убежденным сторонником возвращения эмигрантов в лоно Русской Православной Церкви. В 2004 году Президент России Владимир Путин во время пребывания во Франции встретился с одним из старейших русских эмигрантов, последним подданным Российской империи, 82-летним Андреем Шмеманом, и вручил ему российский паспорт.
качество: DVDRip
формат: AVI
Видео: 704x528 (1.33:1), 25 fps, XviD build 50 ~1697 kbps avg, 0.18 bit/pixel
Аудио: 48 kHz, AC3 Dolby Digital, 2/0 (L,R) ch, ~192 kbps

MediaInfo

Общее
Полное имя : E:\Мои рипы\Отработано\Последний подданный Российской империи..2013.XviD.DVDRip.avi
Формат : AVI
Формат/Информация : Audio Video Interleave
Размер файла : 550 Мбайт
Продолжительность : 40 м.
Общий поток : 1900 Кбит/сек
Программа кодирования : VirtualDubMod 1.5.10.2 (build 2540/release)
Библиотека кодирования : VirtualDubMod build 2540/release
Видео
Идентификатор : 0
Формат : MPEG-4 Visual
Профиль формата : Advanced Simple@L5
Параметр BVOP формата : 2
Параметр QPel формата : Нет
Параметр GMC формата : Без точки перехода
Параметр матрицы формата : Default (H.263)
Идентификатор кодека : XVID
Идентификатор кодека/Подсказка : XviD
Продолжительность : 40 м.
Битрейт : 1698 Кбит/сек
Ширина : 704 пикселя
Высота : 528 пикселей
Соотношение сторон : 4:3
Частота кадров : 25,000 кадров/сек
Цветовое пространство : YUV
Субдискретизация насыщенности : 4:2:0
Битовая глубина : 8 бит
Тип развёртки : Прогрессивная
Метод сжатия : С потерями
Бит/(Пиксели*Кадры) : 0.183
Размер потока : 491 Мбайт (89%)
Библиотека кодирования : XviD 1.2.1 (UTC 2008-12-04)
Аудио
Идентификатор : 1
Формат : AC-3
Формат/Информация : Audio Coding 3
Расширение режима : CM (complete main)
Параметр Endianness формата : Big
Идентификатор кодека : 2000
Продолжительность : 40 м.
Вид битрейта : Постоянный
Битрейт : 192 Кбит/сек
Каналы : 2 канала
Расположение каналов : Front: L R
Частота : 48,0 КГц
Битовая глубина : 16 бит
Метод сжатия : С потерями
Размер потока : 55,6 Мбайт (10%)
Выравнивание : Разделение по промежуткам
Продолжительность промежутка : 40 мс. (1,00 видеокадр)
Время предзагрузки промежутка : 500 мс.
[teatrix.ru].t20288.torrent 
Торрент: Зарегистрирован [ 2016-03-19 20:41 ] · E997C94E9A049C0A84A2F80A642F5F8502DB64AF

Скачать .torrent

Скачать

11 KB

Статус: проверено
Скачан: 0 раз
Размер: 550 MB
terms.php



Быстрый ответ

Имя:

      
Для отправки сообщений необходимо включить JavaScript
Показать сообщения:    

Текущее время: 20-Янв 14:55

Часовой пояс: UTC + 3


Вы можете начинать темы
Вы можете отвечать на сообщения
Вы не можете редактировать свои сообщения
Вы не можете удалять свои сообщения
Вы не можете голосовать в опросах
Вы не можете прикреплять файлы к сообщениям
Вы можете скачивать файлы